Jump to content

NotMe

Members
  • Content Count

    3
  • Joined

  • Last visited

About NotMe

  • Rank
    ISF Newbie

Profile Information

  • Location
    Finland
  1. NotMe

    No audio when using ISRC

    Hi Yep, you were right, it is/was a flaw in MV9N firmware. I updated to version MS0R and burned new cd, which plays flawlessly. If I remember right the MV9N is a patched version that I downloaded from myce.com. Here is the cue file, just in case you are still interested: REM GENRE Classical REM DATE 1982 REM DISCID 2C08EC04 REM COMMENT "ExactAudioCopy v0.95b4" CATALOG 0028943901420 PERFORMER "Camille Saint-Saens" TITLE "Symphony No.3 - ORGAN" FILE "Camille Saint-Saens - Symphony No.3 - ORGAN.wav" WAVE TRACK 01 AUDIO TITLE "1. Adagio - Allegro moderato -" PERFORMER "Camille Saint-Saens" ISRC DEF058100970 INDEX 00 00:00:00 INDEX 01 00:00:33 TRACK 02 AUDIO TITLE "Poco adagio" PERFORMER "Camille Saint-Saens" ISRC DEF058100970 INDEX 01 10:38:33 TRACK 03 AUDIO TITLE "2. Allegro moderato - Presto - Allegro moderato" PERFORMER "Camille Saint-Saens" ISRC DEF058100970 INDEX 01 22:31:33 TRACK 04 AUDIO TITLE "Maetoso - Allegro - Molto Allegro - Pesante" PERFORMER "Camille Saint-Saens" ISRC DEF058100970 INDEX 01 29:33:33 Thank you for your help.
  2. NotMe

    No audio when using ISRC

    Hi The funny thing is that foobar2000 sees and shows it as a normal audio cd. The artist, title, album and length are all there, and it shows on the lower left corner CDDA 1411kbps 44100Hz stereo. But when clicking Play there is no sound, and the "equalizer bars" (don't know the correct term) in upper right corner don't move. Here is the log when burning with ISRC code in cue file (plays with no sound): I 06:31:43 ImgBurn Version 2.5.2.0 started! I 06:31:43 Microsoft Windows XP Professional (5.1, Build 2600 : Service Pack 3) I 06:31:43 Total Physical Memory: 654 832 KB - Available: 126 812 KB W 06:31:43 Drive E:\ (FAT32) does not support single files > 4 GB in size. I 06:31:43 Initialising SPTI... I 06:31:43 Searching for SCSI / ATAPI devices... I 06:31:46 -> Drive 1 - Info: LITE-ON DVDRW SHM-165P6S MV9N (J:) (ATA) I 06:31:46 -> Drive 2 - Info: _NEC DVD_RW ND-2500A 1.08 (K:) (ATA) I 06:31:46 -> Drive 3 - Info: ELBY CLONEDRIVE 1.4 (M:) (SCSI) I 06:31:46 Found 1 DVD±RW, 1 DVD±RW/RAM and 1 BD-ROM/HD DVD-ROM! I 06:34:10 Operation Started! I 06:34:10 Source File: D:\Saint-Saens_Symphony No.3_Karajan\Camille Saint-Saens - Symphony No.3 - ORGAN.cue I 06:34:10 Source File Sectors: 171 333 (AUDIO/2352) I 06:34:11 Source File Size: 402 975 216 bytes I 06:34:11 Source File Volume Identifier: Camille Saint-Saens - Symphony No.3 - ORGAN I 06:34:11 Source File File System(s): None I 06:34:11 Destination Device: [1:0:0] LITE-ON DVDRW SHM-165P6S MV9N (J:) (ATA) I 06:34:11 Destination Media Type: CD-R (Disc ID: 97m26s66f, CMC Magnetics Corp.) (Speeds: 8x; 16x; 24x; 32x; 40x; 48x) I 06:34:11 Destination Media Sectors: 359 844 I 06:34:11 Write Mode: CD I 06:34:11 Write Type: SAO I 06:34:11 Write Speed: 16x I 06:34:11 Lock Volume: Yes I 06:34:11 Test Mode: No I 06:34:11 OPC: Yes I 06:34:11 BURN-Proof: Enabled I 06:34:11 Write Speed Successfully Set! - Effective: 2 822 KB/s (16x) I 06:34:11 Advanced Settings - Force HT: No, Online HT: No, OverSpeed: No, SmartBurn: Yes I 06:34:17 Filling Buffer... (20 MB) I 06:34:19 Writing LeadIn... (CD-TEXT) I 06:34:30 Writing Session 1 of 1... (4 Tracks, LBA: 0 - 171332, MCN: 0028943901420) I 06:34:30 Writing Track 1 of 4... (AUDIO/2352, WAVE, LBA: 0 - 47882, ISRC: DEF058100970) I 06:35:10 Writing Track 2 of 4... (AUDIO/2352, WAVE, LBA: 47883 - 101357, ISRC: DEF058100970) I 06:35:54 Writing Track 3 of 4... (AUDIO/2352, WAVE, LBA: 101358 - 133007, ISRC: DEF058100970) I 06:36:21 Writing Track 4 of 4... (AUDIO/2352, WAVE, LBA: 133008 - 171332, ISRC: DEF058100970) I 06:36:53 Synchronising Cache... I 06:36:59 Image MD5: 5f091f92ab824741dca969e640f453c4 I 06:36:59 Operation Successfully Completed! - Duration: 00:02:48 I 06:36:59 Average Write Rate: 2 771 KB/s (16.1x) - Maximum Write Rate: 2 790 KB/s (16.2x) I 06:37:04 Close Request Acknowledged I 06:37:04 Closing Down... I 06:37:05 Shutting down SPTI... I 06:37:05 ImgBurn closed! And here is the log without ISRC code (plays normally): I 06:40:02 ImgBurn Version 2.5.2.0 started! I 06:40:02 Microsoft Windows XP Professional (5.1, Build 2600 : Service Pack 3) I 06:40:02 Total Physical Memory: 654 832 KB - Available: 118 288 KB W 06:40:02 Drive E:\ (FAT32) does not support single files > 4 GB in size. I 06:40:02 Initialising SPTI... I 06:40:02 Searching for SCSI / ATAPI devices... I 06:40:02 -> Drive 1 - Info: LITE-ON DVDRW SHM-165P6S MV9N (J:) (ATA) I 06:40:02 -> Drive 2 - Info: _NEC DVD_RW ND-2500A 1.08 (K:) (ATA) I 06:40:02 -> Drive 3 - Info: ELBY CLONEDRIVE 1.4 (M:) (SCSI) I 06:40:02 Found 1 DVD±RW, 1 DVD±RW/RAM and 1 BD-ROM/HD DVD-ROM! I 06:40:20 Operation Started! I 06:40:20 Source File: D:\Saint-Saens_Symphony No.3_Karajan\Camille Saint-Saens - Symphony No.3 - ORGAN.cue I 06:40:20 Source File Sectors: 171 333 (AUDIO/2352) I 06:40:20 Source File Size: 402 975 216 bytes I 06:40:20 Source File Volume Identifier: Camille Saint-Saens - Symphony No.3 - ORGAN I 06:40:21 Source File File System(s): None I 06:40:21 Destination Device: [1:0:0] LITE-ON DVDRW SHM-165P6S MV9N (J:) (ATA) I 06:40:21 Destination Media Type: CD-R (Disc ID: 97m26s66f, CMC Magnetics Corp.) (Speeds: 8x; 16x; 24x; 32x; 40x; 48x) I 06:40:21 Destination Media Sectors: 359 844 I 06:40:21 Write Mode: CD I 06:40:21 Write Type: SAO I 06:40:21 Write Speed: 16x I 06:40:21 Lock Volume: Yes I 06:40:21 Test Mode: No I 06:40:21 OPC: Yes I 06:40:21 BURN-Proof: Enabled I 06:40:21 Write Speed Successfully Set! - Effective: 2 822 KB/s (16x) I 06:40:21 Advanced Settings - Force HT: No, Online HT: No, OverSpeed: No, SmartBurn: Yes I 06:40:27 Filling Buffer... (20 MB) I 06:40:28 Writing LeadIn... (CD-TEXT) I 06:40:39 Writing Session 1 of 1... (4 Tracks, LBA: 0 - 171332, MCN: 0028943901420) I 06:40:39 Writing Track 1 of 4... (AUDIO/2352, WAVE, LBA: 0 - 47882) I 06:41:19 Writing Track 2 of 4... (AUDIO/2352, WAVE, LBA: 47883 - 101357) I 06:42:04 Writing Track 3 of 4... (AUDIO/2352, WAVE, LBA: 101358 - 133007) I 06:42:30 Writing Track 4 of 4... (AUDIO/2352, WAVE, LBA: 133008 - 171332) I 06:43:02 Synchronising Cache... I 06:43:09 Image MD5: 5f091f92ab824741dca969e640f453c4 I 06:43:09 Operation Successfully Completed! - Duration: 00:02:48 I 06:43:09 Average Write Rate: 2 771 KB/s (16.1x) - Maximum Write Rate: 2 790 KB/s (16.2x) I 06:43:11 Close Request Acknowledged I 06:43:11 Closing Down... I 06:43:11 Shutting down SPTI... I 06:43:11 ImgBurn closed! Hope this helps.
  3. NotMe

    No audio when using ISRC

    Hi I noticed that when burning audio cd from cue and wav files, if the cue files has ISRC code, the cd burns just fine, but there is no audio. If I removed the ISRC from the cue file, cd succesfully burned and there is audio. So for example this results inaudible cd: FILE "Camille Saint-Saens - Symphony No.3 - ORGAN.wav" WAVE TRACK 01 AUDIO TITLE "1. Adagio - Allegro moderato -" PERFORMER "Camille Saint-Saens" ISRC DEF058100970 INDEX 00 00:00:00 INDEX 01 00:00:33 while this results normal audible cd: FILE "Camille Saint-Saens - Symphony No.3 - ORGAN.wav" WAVE TRACK 01 AUDIO TITLE "1. Adagio - Allegro moderato -" PERFORMER "Camille Saint-Saens" INDEX 00 00:00:00 INDEX 01 00:00:33 Or am I doing something wrong here?
×

Important Information

By using this site, you agree to our Terms of Use.