Jump to content

Emiel

Members
  • Content Count

    3
  • Joined

  • Last visited

About Emiel

  • Rank
    ISF Newbie
  1. I get the following error when I want to burn a newly created .cue file to a CD: My log: I 21:48:19 ImgBurn Version 2.5.8.0 started! I 21:48:19 Microsoft Windows 8 Professional x64 Edition (6.2, Build 9200) I 21:48:19 Total Physical Memory: 8.273.956 KiB - Available: 5.527.244 KiB I 21:48:19 Initialising SPTI... I 21:48:19 Searching for SCSI / ATAPI devices... I 21:48:20 -> Drive 1 - Info: HL-DT-ST BD-RE BH10LS30 1.02-A0 (D:) (SATA) I 21:48:20 Found 1 BD-RE! I 21:48:36 Operation Started! I 21:48:36 Source File: H:\Google Drive\Nostalgie\Games\Rayman\Rémi Gazel & Eric Chevalier - Rayman & Rayman 2- The Great Escape (Original Soundtracks).cue I 21:48:36 Source File Sectors: 352.026 (AUDIO/2352) I 21:48:36 Source File Size: 827.965.152 bytes I 21:48:36 Source File Volume Identifier: Rémi Gazel & Eric Chevalier - Rayman & Rayman 2: The Great Escape (Original Soundtracks) I 21:48:36 Source File File System(s): None I 21:48:36 Destination Device: [0:0:0] HL-DT-ST BD-RE BH10LS30 1.02 (D:) (SATA) I 21:48:36 Destination Media Type: CD-R (Disc ID: 97m26s66f, CMC Magnetics Corp.) I 21:48:36 Destination Media Supported Write Speeds: 24x, 32x, 40x I 21:48:37 Destination Media Sectors: 359.844 I 21:48:37 Write Mode: CD I 21:48:37 Write Type: SAO I 21:48:37 Write Speed: 24x I 21:48:37 Lock Volume: Yes I 21:48:37 Test Mode: No I 21:48:37 OPC: No I 21:48:37 BURN-Proof: Enabled I 21:48:37 Write Speed Successfully Set! - Effective: 4.234 KB/s (24x) E 21:48:38 Failed to send Cue Sheet! E 21:48:38 Reason: Invalid Field in Parameter List E 21:48:40 Operation Failed! - Duration: 00:00:03 I 21:48:40 Average Write Rate: N/A - Maximum Write Rate: N/A My Cue sheet: TITLE "Rayman & Rayman 2: The Great Escape (Original Soundtracks)" PERFORMER "Rémi Gazel & Eric Chevalier" FILE "H:\Google Drive\Nostalgie\Games\Rayman\Soundtrack (RayTunes)\MP3\01 - Ubisoft Presents.mp3" MP3 REM FILE-DECODED-SIZE 00:09:28 TRACK 01 AUDIO TITLE "Ubisoft Presents" PERFORMER "Rémi Gazel & VA" INDEX 01 00:00:00 FILE "H:\Google Drive\Nostalgie\Games\Rayman\Soundtrack (RayTunes)\MP3\02 - World Map.mp3" MP3 REM FILE-DECODED-SIZE 00:57:74 TRACK 02 AUDIO TITLE "World Map" PERFORMER "Rémi Gazel & VA" INDEX 01 00:00:00 FILE "H:\Google Drive\Nostalgie\Games\Rayman\Soundtrack (RayTunes)\MP3\03 - First Steps.mp3" MP3 REM FILE-DECODED-SIZE 01:07:37 TRACK 03 AUDIO TITLE "First Steps" PERFORMER "Rémi Gazel & VA" INDEX 01 00:00:00 FILE "H:\Google Drive\Nostalgie\Games\Rayman\Soundtrack (RayTunes)\MP3\04 - Deep Forest.mp3" MP3 REM FILE-DECODED-SIZE 01:05:32 TRACK 04 AUDIO TITLE "Deep Forest" PERFORMER "Rémi Gazel & VA" INDEX 01 00:00:00 FILE "H:\Google Drive\Nostalgie\Games\Rayman\Soundtrack (RayTunes)\MP3\07 - Betilla the Fairy.mp3" MP3 REM FILE-DECODED-SIZE 01:20:61 TRACK 05 AUDIO TITLE "Betilla the Fairy" PERFORMER "Rémi Gazel & VA" INDEX 01 00:00:00 FILE "H:\Google Drive\Nostalgie\Games\Rayman\Soundtrack (RayTunes)\MP3\16 - Harmony.mp3" MP3 REM FILE-DECODED-SIZE 01:06:38 TRACK 06 AUDIO TITLE "Harmony" PERFORMER "Rémi Gazel & VA" INDEX 01 00:00:00 FILE "H:\Google Drive\Nostalgie\Games\Rayman\Soundtrack (RayTunes)\MP3\22 - Blazing Brass.mp3" MP3 REM FILE-DECODED-SIZE 00:55:67 TRACK 07 AUDIO TITLE "Blazing Brass" PERFORMER "Rémi Gazel & VA" INDEX 01 00:00:00 FILE "H:\Google Drive\Nostalgie\Games\Rayman\Soundtrack (RayTunes)\MP3\24 - Peaceful Peaks.mp3" MP3 REM FILE-DECODED-SIZE 01:05:62 TRACK 08 AUDIO TITLE "Peaceful Peaks" PERFORMER "Rémi Gazel & VA" INDEX 01 00:00:00 FILE "H:\Google Drive\Nostalgie\Games\Rayman\Soundtrack (RayTunes)\MP3\26 - Call of the Mountain.mp3" MP3 REM FILE-DECODED-SIZE 01:05:46 TRACK 09 AUDIO TITLE "Call of the Mountain" PERFORMER "Rémi Gazel & VA" INDEX 01 00:00:00 FILE "H:\Google Drive\Nostalgie\Games\Rayman\Soundtrack (RayTunes)\MP3\32 - Picture Perfect.mp3" MP3 REM FILE-DECODED-SIZE 01:02:54 TRACK 10 AUDIO TITLE "Picture Perfect" PERFORMER "Rémi Gazel & VA" INDEX 01 00:00:00 FILE "H:\Google Drive\Nostalgie\Games\Rayman\Soundtrack (RayTunes)\MP3\35 - Deep Concentration.mp3" MP3 REM FILE-DECODED-SIZE 00:57:17 TRACK 11 AUDIO TITLE "Deep Concentration" PERFORMER "Rémi Gazel & VA" INDEX 01 00:00:00 FILE "H:\Google Drive\Nostalgie\Games\Rayman\Soundtrack (RayTunes)\MP3\37 - Entering the Cavern.mp3" MP3 REM FILE-DECODED-SIZE 01:10:67 TRACK 12 AUDIO TITLE "Entering the Cavern" PERFORMER "Rémi Gazel & VA" INDEX 01 00:00:00 FILE "H:\Google Drive\Nostalgie\Games\Rayman\Soundtrack (RayTunes)\MP3\38 - The Stalactites' Teardrops.mp3" MP3 REM FILE-DECODED-SIZE 01:01:11 TRACK 13 AUDIO TITLE "The Stalactites' Teardrops" PERFORMER "Rémi Gazel & VA" INDEX 01 00:00:00 FILE "H:\Google Drive\Nostalgie\Games\Rayman\Soundtrack (RayTunes)\MP3\47 - Mr. Dark's Dare.mp3" MP3 REM FILE-DECODED-SIZE 01:07:27 TRACK 14 AUDIO TITLE "Mr. Dark's Dare" PERFORMER "Rémi Gazel & VA" INDEX 01 00:00:00 FILE "H:\Google Drive\Nostalgie\Games\Rayman\Soundtrack (RayTunes)\MP3\48 - Once More.mp3" MP3 REM FILE-DECODED-SIZE 00:33:26 TRACK 15 AUDIO TITLE "Once More" PERFORMER "Rémi Gazel & VA" INDEX 01 00:00:00 FILE "H:\Google Drive\Nostalgie\Games\Rayman\Soundtrack (RayTunes)\MP3\50 - Yeah!.mp3" MP3 REM FILE-DECODED-SIZE 00:06:39 TRACK 16 AUDIO TITLE "Yeah!" PERFORMER "Rémi Gazel & VA" INDEX 01 00:00:00 FILE "H:\Google Drive\Nostalgie\Games\Rayman 2 - The Great Escape\Soundtrack (RayTunes)\MP3\001 - Prologue ~Anguish and Pain~.mp3" MP3 REM FILE-DECODED-SIZE 01:46:55 TRACK 17 AUDIO TITLE "Prologue ~Anguish and Pain~" PERFORMER "Eric Chevalier" INDEX 01 00:00:00 FILE "H:\Google Drive\Nostalgie\Games\Rayman 2 - The Great Escape\Soundtrack (RayTunes)\MP3\004 - The Woods of Light.mp3" MP3 REM FILE-DECODED-SIZE 01:36:43 TRACK 18 AUDIO TITLE "The Woods of Light" PERFORMER "Eric Chevalier" INDEX 01 00:00:00 FILE "H:\Google Drive\Nostalgie\Games\Rayman 2 - The Great Escape\Soundtrack (RayTunes)\MP3\006 - King of the Teensies.mp3" MP3 REM FILE-DECODED-SIZE 00:43:21 TRACK 19 AUDIO TITLE "King of the Teensies" PERFORMER "Eric Chevalier" INDEX 01 00:00:00 FILE "H:\Google Drive\Nostalgie\Games\Rayman 2 - The Great Escape\Soundtrack (RayTunes)\MP3\007 - The Hall of Doors.mp3" MP3 REM FILE-DECODED-SIZE 00:56:63 TRACK 20 AUDIO TITLE "The Hall of Doors" PERFORMER "Eric Chevalier" INDEX 01 00:00:00 FILE "H:\Google Drive\Nostalgie\Games\Rayman 2 - The Great Escape\Soundtrack (RayTunes)\MP3\013 - The Fairy Glade.mp3" MP3 REM FILE-DECODED-SIZE 03:15:49 TRACK 21 AUDIO TITLE "The Fairy Glade" PERFORMER "Eric Chevalier" INDEX 01 00:00:00 FILE "H:\Google Drive\Nostalgie\Games\Rayman 2 - The Great Escape\Soundtrack (RayTunes)\MP3\015 - On the Front Lines.mp3" MP3 REM FILE-DECODED-SIZE 01:34:30 TRACK 22 AUDIO TITLE "On the Front Lines" PERFORMER "Eric Chevalier" INDEX 01 00:00:00 FILE "H:\Google Drive\Nostalgie\Games\Rayman 2 - The Great Escape\Soundtrack (RayTunes)\MP3\017 - Infiltrating the Fortress.mp3" MP3 REM FILE-DECODED-SIZE 00:41:30 TRACK 23 AUDIO TITLE "Infiltrating the Fortress" PERFORMER "Eric Chevalier" INDEX 01 00:00:00 FILE "H:\Google Drive\Nostalgie\Games\Rayman 2 - The Great Escape\Soundtrack (RayTunes)\MP3\021 - Pirate Machinery.mp3" MP3 REM FILE-DECODED-SIZE 01:18:41 TRACK 24 AUDIO TITLE "Pirate Machinery" PERFORMER "Eric Chevalier" INDEX 01 00:00:00 FILE "H:\Google Drive\Nostalgie\Games\Rayman 2 - The Great Escape\Soundtrack (RayTunes)\MP3\023 - Ly the Fairy.mp3" MP3 REM FILE-DECODED-SIZE 00:38:00 TRACK 25 AUDIO TITLE "Ly the Fairy" PERFORMER "Eric Chevalier" INDEX 01 00:00:00 FILE "H:\Google Drive\Nostalgie\Games\Rayman 2 - The Great Escape\Soundtrack (RayTunes)\MP3\029 - The Marshes of Awakening.mp3" MP3 REM FILE-DECODED-SIZE 01:07:47 TRACK 26 AUDIO TITLE "The Marshes of Awakening" PERFORMER "Eric Chevalier" INDEX 01 00:00:00 FILE "H:\Google Drive\Nostalgie\Games\Rayman 2 - The Great Escape\Soundtrack (RayTunes)\MP3\030 - Hit it! ~A Senssssational Ride~.mp3" MP3 REM FILE-DECODED-SIZE 01:59:40 TRACK 27 AUDIO TITLE "Hit it! ~A Senssssational Ride~" PERFORMER "Eric Chevalier" INDEX 01 00:00:00 FILE "H:\Google Drive\Nostalgie\Games\Rayman 2 - The Great Escape\Soundtrack (RayTunes)\MP3\034 - The Bayou ~The Warship~.mp3" MP3 REM FILE-DECODED-SIZE 03:23:70 TRACK 28 AUDIO TITLE "The Bayou ~The Warship~" PERFORMER "Eric Chevalier" INDEX 01 00:00:00 FILE "H:\Google Drive\Nostalgie\Games\Rayman 2 - The Great Escape\Soundtrack (RayTunes)\MP3\036 - The Bayou ~The Pirate Base~.mp3" MP3 REM FILE-DECODED-SIZE 01:47:25 TRACK 29 AUDIO TITLE "The Bayou ~The Pirate Base~" PERFORMER "Eric Chevalier" INDEX 01 00:00:00 FILE "H:\Google Drive\Nostalgie\Games\Rayman 2 - The Great Escape\Soundtrack (RayTunes)\MP3\038 - The Sanctuary of Water and Ice.mp3" MP3 REM FILE-DECODED-SIZE 01:39:41 TRACK 30 AUDIO TITLE "The Sanctuary of Water and Ice" PERFORMER "Eric Chevalier" INDEX 01 00:00:00 FILE "H:\Google Drive\Nostalgie\Games\Rayman 2 - The Great Escape\Soundtrack (RayTunes)\MP3\041 - The Celestial Slide.mp3" MP3 REM FILE-DECODED-SIZE 00:49:59 TRACK 31 AUDIO TITLE "The Celestial Slide" PERFORMER "Eric Chevalier" INDEX 01 00:00:00 FILE "H:\Google Drive\Nostalgie\Games\Rayman 2 - The Great Escape\Soundtrack (RayTunes)\MP3\045 - The Four Masks.mp3" MP3 REM FILE-DECODED-SIZE 01:30:52 TRACK 32 AUDIO TITLE "The Four Masks" PERFORMER "Eric Chevalier" INDEX 01 00:00:00 FILE "H:\Google Drive\Nostalgie\Games\Rayman 2 - The Great Escape\Soundtrack (RayTunes)\MP3\046 - Polokus ~Spirit of the World~.mp3" MP3 REM FILE-DECODED-SIZE 00:43:66 TRACK 33 AUDIO TITLE "Polokus ~Spirit of the World~" PERFORMER "Eric Chevalier" INDEX 01 00:00:00 FILE "H:\Google Drive\Nostalgie\Games\Rayman 2 - The Great Escape\Soundtrack (RayTunes)\MP3\056 - Clark the Giant.mp3" MP3 REM FILE-DECODED-SIZE 01:24:43 TRACK 34 AUDIO TITLE "Clark the Giant" PERFORMER "Eric Chevalier" INDEX 01 00:00:00 FILE "H:\Google Drive\Nostalgie\Games\Rayman 2 - The Great Escape\Soundtrack (RayTunes)\MP3\057 - The Cave of Bad Dreams.mp3" MP3 REM FILE-DECODED-SIZE 01:11:72 TRACK 35 AUDIO TITLE "The Cave of Bad Dreams" PERFORMER "Eric Chevalier" INDEX 01 00:00:00 FILE "H:\Google Drive\Nostalgie\Games\Rayman 2 - The Great Escape\Soundtrack (RayTunes)\MP3\063 - I Want the Treasure!.mp3" MP3 REM FILE-DECODED-SIZE 00:05:24 TRACK 36 AUDIO TITLE "I Want the Treasure!" PERFORMER "Eric Chevalier" INDEX 01 00:00:00 FILE "H:\Google Drive\Nostalgie\Games\Rayman 2 - The Great Escape\Soundtrack (RayTunes)\MP3\066 - The Canopy.mp3" MP3 REM FILE-DECODED-SIZE 03:11:28 TRACK 37 AUDIO TITLE "The Canopy" PERFORMER "Eric Chevalier" INDEX 01 00:00:00 FILE "H:\Google Drive\Nostalgie\Games\Rayman 2 - The Great Escape\Soundtrack (RayTunes)\MP3\069 - Red Rum ~Bloodthirst~.mp3" MP3 REM FILE-DECODED-SIZE 00:59:28 TRACK 38 AUDIO TITLE "Red Rum ~Bloodthirst~" PERFORMER "Eric Chevalier" INDEX 01 00:00:00 FILE "H:\Google Drive\Nostalgie\Games\Rayman 2 - The Great Escape\Soundtrack (RayTunes)\MP3\070 - The Whale Bay ~Shallow Harbour~.mp3" MP3 REM FILE-DECODED-SIZE 00:39:13 TRACK 39 AUDIO TITLE "The Whale Bay ~Shallow Harbour~" PERFORMER "Eric Chevalier" INDEX 01 00:00:00 FILE "H:\Google Drive\Nostalgie\Games\Rayman 2 - The Great Escape\Soundtrack (RayTunes)\MP3\071 - The Whale Bay ~Bubble Trail~.mp3" MP3 REM FILE-DECODED-SIZE 03:13:38 TRACK 40 AUDIO TITLE "The Whale Bay ~Bubble Trail~" PERFORMER "Eric Chevalier" INDEX 01 00:00:00 FILE "H:\Google Drive\Nostalgie\Games\Rayman 2 - The Great Escape\Soundtrack (RayTunes)\MP3\072 - Into the Sanctuary of Stone and Fire.mp3" MP3 REM FILE-DECODED-SIZE 01:11:27 TRACK 41 AUDIO TITLE "Into the Sanctuary of Stone and Fire" PERFORMER "Eric Chevalier" INDEX 01 00:00:00 FILE "H:\Google Drive\Nostalgie\Games\Rayman 2 - The Great Escape\Soundtrack (RayTunes)\MP3\073 - Extreme Heat.mp3" MP3 REM FILE-DECODED-SIZE 00:33:54 TRACK 42 AUDIO TITLE "Extreme Heat" PERFORMER "Eric Chevalier" INDEX 01 00:00:00 FILE "H:\Google Drive\Nostalgie\Games\Rayman 2 - The Great Escape\Soundtrack (RayTunes)\MP3\079 - The Lava Stream.mp3" MP3 REM FILE-DECODED-SIZE 01:05:62 TRACK 43 AUDIO TITLE "The Lava Stream" PERFORMER "Eric Chevalier" INDEX 01 00:00:00 FILE "H:\Google Drive\Nostalgie\Games\Rayman 2 - The Great Escape\Soundtrack (RayTunes)\MP3\082 - The Ancient Lava Temple.mp3" MP3 REM FILE-DECODED-SIZE 01:05:60 TRACK 44 AUDIO TITLE "The Ancient Lava Temple" PERFORMER "Eric Chevalier" INDEX 01 00:00:00 FILE "H:\Google Drive\Nostalgie\Games\Rayman 2 - The Great Escape\Soundtrack (RayTunes)\MP3\084 - Umber's Sacrifice.mp3" MP3 REM FILE-DECODED-SIZE 01:17:16 TRACK 45 AUDIO TITLE "Umber's Sacrifice" PERFORMER "Eric Chevalier" INDEX 01 00:00:00 FILE "H:\Google Drive\Nostalgie\Games\Rayman 2 - The Great Escape\Soundtrack (RayTunes)\MP3\088 - The Flying Barrel ~Ignition~.mp3" MP3 REM FILE-DECODED-SIZE 01:23:19 TRACK 46 AUDIO TITLE "The Flying Barrel ~Ignition~" PERFORMER "Eric Chevalier" INDEX 01 00:00:00 FILE "H:\Google Drive\Nostalgie\Games\Rayman 2 - The Great Escape\Soundtrack (RayTunes)\MP3\090 - The Flying Barrel.mp3" MP3 REM FILE-DECODED-SIZE 01:22:68 TRACK 47 AUDIO TITLE "The Flying Barrel" PERFORMER "Eric Chevalier" INDEX 01 00:00:00 FILE "H:\Google Drive\Nostalgie\Games\Rayman 2 - The Great Escape\Soundtrack (RayTunes)\MP3\092 - The Precipice ~The Great Escape~.mp3" MP3 REM FILE-DECODED-SIZE 02:47:64 TRACK 48 AUDIO TITLE "The Precipice ~The Great Escape~" PERFORMER "Eric Chevalier" INDEX 01 00:00:00 FILE "H:\Google Drive\Nostalgie\Games\Rayman 2 - The Great Escape\Soundtrack (RayTunes)\MP3\093 - The Precipice ~Insane Warship~.mp3" MP3 REM FILE-DECODED-SIZE 00:46:68 TRACK 49 AUDIO TITLE "The Precipice ~Insane Warship~" PERFORMER "Eric Chevalier" INDEX 01 00:00:00 FILE "H:\Google Drive\Nostalgie\Games\Rayman 2 - The Great Escape\Soundtrack (RayTunes)\MP3\094 - The Precipice ~Falling~.mp3" MP3 REM FILE-DECODED-SIZE 01:15:60 TRACK 50 AUDIO TITLE "The Precipice ~Falling~" PERFORMER "Eric Chevalier" INDEX 01 00:00:00 FILE "H:\Google Drive\Nostalgie\Games\Rayman 2 - The Great Escape\Soundtrack (RayTunes)\MP3\095 - The Top of the World.mp3" MP3 REM FILE-DECODED-SIZE 02:41:32 TRACK 51 AUDIO TITLE "The Top of the World" PERFORMER "Eric Chevalier" INDEX 01 00:00:00 FILE "H:\Google Drive\Nostalgie\Games\Rayman 2 - The Great Escape\Soundtrack (RayTunes)\MP3\106 - Into the Sanctuary of Rock and Lava.mp3" MP3 REM FILE-DECODED-SIZE 02:04:57 TRACK 52 AUDIO TITLE "Into the Sanctuary of Rock and Lava" PERFORMER "Eric Chevalier" INDEX 01 00:00:00 FILE "H:\Google Drive\Nostalgie\Games\Rayman 2 - The Great Escape\Soundtrack (RayTunes)\MP3\107 - Flower Ride.mp3" MP3 REM FILE-DECODED-SIZE 01:14:23 TRACK 53 AUDIO TITLE "Flower Ride" PERFORMER "Eric Chevalier" INDEX 01 00:00:00 FILE "H:\Google Drive\Nostalgie\Games\Rayman 2 - The Great Escape\Soundtrack (RayTunes)\MP3\109 - Hot Air Flight.mp3" MP3 REM FILE-DECODED-SIZE 00:59:36 TRACK 54 AUDIO TITLE "Hot Air Flight" PERFORMER "Eric Chevalier" INDEX 01 00:00:00 FILE "H:\Google Drive\Nostalgie\Games\Rayman 2 - The Great Escape\Soundtrack (RayTunes)\MP3\112 - The Pirate Mines.mp3" MP3 REM FILE-DECODED-SIZE 01:40:36 TRACK 55 AUDIO TITLE "The Pirate Mines" PERFORMER "Eric Chevalier" INDEX 01 00:00:00 FILE "H:\Google Drive\Nostalgie\Games\Rayman 2 - The Great Escape\Soundtrack (RayTunes)\MP3\115 - The Prison Ship.mp3" MP3 REM FILE-DECODED-SIZE 00:31:37 TRACK 56 AUDIO TITLE "The Prison Ship" PERFORMER "Eric Chevalier" INDEX 01 00:00:00 FILE "H:\Google Drive\Nostalgie\Games\Rayman 2 - The Great Escape\Soundtrack (RayTunes)\MP3\116 - Freeing the Slaves.mp3" MP3 REM FILE-DECODED-SIZE 01:01:11 TRACK 57 AUDIO TITLE "Freeing the Slaves" PERFORMER "Eric Chevalier" INDEX 01 00:00:00 FILE "H:\Google Drive\Nostalgie\Games\Rayman 2 - The Great Escape\Soundtrack (RayTunes)\MP3\119 - Ending ~He's Alive!~.mp3" MP3 REM FILE-DECODED-SIZE 00:43:29 TRACK 58 AUDIO TITLE "Ending ~He's Alive!~" PERFORMER "Eric Chevalier" INDEX 01 00:00:00 FILE "H:\Google Drive\Nostalgie\Games\Rayman 2 - The Great Escape\Soundtrack (RayTunes)\MP3\120 - Main Theme ~The Great Escape~.mp3" MP3 REM FILE-DECODED-SIZE 03:10:18 TRACK 59 AUDIO TITLE "Main Theme ~The Great Escape~" PERFORMER "Eric Chevalier" INDEX 01 00:00:00 FILE "H:\Google Drive\Nostalgie\Games\Rayman 2 - The Great Escape\Soundtrack (RayTunes)\MP3\128 - (Jingle) Switch Activated.mp3" MP3 REM FILE-DECODED-SIZE 00:03:10 TRACK 60 AUDIO TITLE "(Jingle) Switch Activated" PERFORMER "Eric Chevalier" INDEX 01 00:00:00 Any help is greatly appreciated! Thanks in advance :) Rémi Gazel & Eric Chevalier - Rayman & Rayman 2- The Great Escape (Original Soundtracks).cue
×

Important Information

By using this site, you agree to our Terms of Use.