Jump to content

Adam98494564

Members
  • Content Count

    9
  • Joined

  • Last visited

About Adam98494564

  • Rank
    ISF Newbie
  1. Because I didn't know how to create a cue file for the 3 bin files, but I've learnt Let it buuuurn, ohhh let it buuuurn. Thanks
  2. ohh so ImgBurn will write all the 3 bins onto the CD-R based on the single cue file which contains the 3 tracks named by the bin files? cool. thanks that was the question.
  3. Well, I've seen that link. Thank you
  4. I've already linked this website here, but thank you >>> If you scroll down, there's the same link you've sent me. I have all the needed .cue files correctly. That's not the problem. The problem is that there are 3 .bin files for one game = Tekken. Other games usually have only 1 bin file, so I don't know how to make a CD-R with these 3 bin files but we'll see... Maybe I just need to right click on the cue file and open it up with Imgburn, and maybe ImgBurn will automatically burn these 3 bin files properly (based on the cue file containing the 3 tracks for the 3 bins).
  5. Yeah, but if I merged 3 bin files, that will make errors I'm sure
  6. I've just found the answer here.
  7. Thank you for your help Well this is actually a game and it has 3 bin files everywhere I've seen this game. I've never heard about pregap before, but it's good to know that >>> Wikipedia Pregap Thanks
  8. This is actually a Playstation game I'd like to burn onto a CD-R. And probably the first track would be for the game itself, and track 2 and track 3 would be the game's audio. I don't know exactly but I've attached an image about the files.
  9. I wanna burn 3 bin files onto a CD-R, but I don't have any cue files, so how can I create 1 cue file for the 3 bin files on 1 CD-R ? I've found this code for notepad++ but I don't know if it's work or not: FILE "Filename1.bin" BINARY TRACK 01 MODE2/2352 INDEX 01 00:00:00 FILE "Filename2.bin" BINARY TRACK 02 AUDIO INDEX 00 00:00:00 INDEX 01 00:02:00 FILE "Filename3.bin" BINARY TRACK 03 AUDIO INDEX 00 00:00:00 INDEX 01 00:02:00
×

Important Information

By using this site, you agree to our Terms of Use.