Jump to content
Sign in to follow this  
NotMe

No audio when using ISRC

Recommended Posts

Hi

 

I noticed that when burning audio cd from cue and wav files, if the cue files has ISRC code, the cd burns just fine, but there is no audio.

If I removed the ISRC from the cue file, cd succesfully burned and there is audio.

So for example this results inaudible cd:

 

FILE "Camille Saint-Saens - Symphony No.3 - ORGAN.wav" WAVE

TRACK 01 AUDIO

TITLE "1. Adagio - Allegro moderato -"

PERFORMER "Camille Saint-Saens"

ISRC DEF058100970

INDEX 00 00:00:00

INDEX 01 00:00:33

 

while this results normal audible cd:

 

FILE "Camille Saint-Saens - Symphony No.3 - ORGAN.wav" WAVE

TRACK 01 AUDIO

TITLE "1. Adagio - Allegro moderato -"

PERFORMER "Camille Saint-Saens"

INDEX 00 00:00:00

INDEX 01 00:00:33

 

Or am I doing something wrong here?

Share this post


Link to post
Share on other sites

Hi

 

The funny thing is that foobar2000 sees and shows it as a normal audio cd. The artist, title, album and length are all there, and it shows on the lower left corner CDDA 1411kbps 44100Hz stereo. But when clicking Play there is no sound, and the "equalizer bars" (don't know the correct term) in upper right corner don't move.

 

Here is the log when burning with ISRC code in cue file (plays with no sound):

 

I 06:31:43 ImgBurn Version 2.5.2.0 started!
I 06:31:43 Microsoft Windows XP Professional (5.1, Build 2600 : Service Pack 3)
I 06:31:43 Total Physical Memory: 654 832 KB  -  Available: 126 812 KB
W 06:31:43 Drive E:\ (FAT32) does not support single files > 4 GB in size.
I 06:31:43 Initialising SPTI...
I 06:31:43 Searching for SCSI / ATAPI devices...
I 06:31:46 -> Drive 1 - Info: LITE-ON DVDRW SHM-165P6S MV9N (J:) (ATA)
I 06:31:46 -> Drive 2 - Info: _NEC DVD_RW ND-2500A 1.08 (K:) (ATA)
I 06:31:46 -> Drive 3 - Info: ELBY CLONEDRIVE 1.4 (M:) (SCSI)
I 06:31:46 Found 1 DVD±RW, 1 DVD±RW/RAM and 1 BD-ROM/HD DVD-ROM!
I 06:34:10 Operation Started!
I 06:34:10 Source File: D:\Saint-Saens_Symphony No.3_Karajan\Camille Saint-Saens - Symphony No.3 - ORGAN.cue
I 06:34:10 Source File Sectors: 171 333 (AUDIO/2352)
I 06:34:11 Source File Size: 402 975 216 bytes
I 06:34:11 Source File Volume Identifier: Camille Saint-Saens - Symphony No.3 - ORGAN
I 06:34:11 Source File File System(s): None
I 06:34:11 Destination Device: [1:0:0] LITE-ON DVDRW SHM-165P6S MV9N (J:) (ATA)
I 06:34:11 Destination Media Type: CD-R (Disc ID: 97m26s66f, CMC Magnetics Corp.) (Speeds: 8x; 16x; 24x; 32x; 40x; 48x)
I 06:34:11 Destination Media Sectors: 359 844
I 06:34:11 Write Mode: CD
I 06:34:11 Write Type: SAO
I 06:34:11 Write Speed: 16x
I 06:34:11 Lock Volume: Yes
I 06:34:11 Test Mode: No
I 06:34:11 OPC: Yes
I 06:34:11 BURN-Proof: Enabled
I 06:34:11 Write Speed Successfully Set! - Effective: 2 822 KB/s (16x)
I 06:34:11 Advanced Settings - Force HT: No, Online HT: No, OverSpeed: No, SmartBurn: Yes
I 06:34:17 Filling Buffer... (20 MB)
I 06:34:19 Writing LeadIn... (CD-TEXT)
I 06:34:30 Writing Session 1 of 1... (4 Tracks, LBA: 0 - 171332, MCN: 0028943901420)
I 06:34:30 Writing Track 1 of 4... (AUDIO/2352, WAVE, LBA: 0 - 47882, ISRC: DEF058100970)
I 06:35:10 Writing Track 2 of 4... (AUDIO/2352, WAVE, LBA: 47883 - 101357, ISRC: DEF058100970)
I 06:35:54 Writing Track 3 of 4... (AUDIO/2352, WAVE, LBA: 101358 - 133007, ISRC: DEF058100970)
I 06:36:21 Writing Track 4 of 4... (AUDIO/2352, WAVE, LBA: 133008 - 171332, ISRC: DEF058100970)
I 06:36:53 Synchronising Cache...
I 06:36:59 Image MD5: 5f091f92ab824741dca969e640f453c4
I 06:36:59 Operation Successfully Completed! - Duration: 00:02:48
I 06:36:59 Average Write Rate: 2 771 KB/s (16.1x) - Maximum Write Rate: 2 790 KB/s (16.2x)
I 06:37:04 Close Request Acknowledged
I 06:37:04 Closing Down...
I 06:37:05 Shutting down SPTI...
I 06:37:05 ImgBurn closed!

 

And here is the log without ISRC code (plays normally):

 

I 06:40:02 ImgBurn Version 2.5.2.0 started!
I 06:40:02 Microsoft Windows XP Professional (5.1, Build 2600 : Service Pack 3)
I 06:40:02 Total Physical Memory: 654 832 KB  -  Available: 118 288 KB
W 06:40:02 Drive E:\ (FAT32) does not support single files > 4 GB in size.
I 06:40:02 Initialising SPTI...
I 06:40:02 Searching for SCSI / ATAPI devices...
I 06:40:02 -> Drive 1 - Info: LITE-ON DVDRW SHM-165P6S MV9N (J:) (ATA)
I 06:40:02 -> Drive 2 - Info: _NEC DVD_RW ND-2500A 1.08 (K:) (ATA)
I 06:40:02 -> Drive 3 - Info: ELBY CLONEDRIVE 1.4 (M:) (SCSI)
I 06:40:02 Found 1 DVD±RW, 1 DVD±RW/RAM and 1 BD-ROM/HD DVD-ROM!
I 06:40:20 Operation Started!
I 06:40:20 Source File: D:\Saint-Saens_Symphony No.3_Karajan\Camille Saint-Saens - Symphony No.3 - ORGAN.cue
I 06:40:20 Source File Sectors: 171 333 (AUDIO/2352)
I 06:40:20 Source File Size: 402 975 216 bytes
I 06:40:20 Source File Volume Identifier: Camille Saint-Saens - Symphony No.3 - ORGAN
I 06:40:21 Source File File System(s): None
I 06:40:21 Destination Device: [1:0:0] LITE-ON DVDRW SHM-165P6S MV9N (J:) (ATA)
I 06:40:21 Destination Media Type: CD-R (Disc ID: 97m26s66f, CMC Magnetics Corp.) (Speeds: 8x; 16x; 24x; 32x; 40x; 48x)
I 06:40:21 Destination Media Sectors: 359 844
I 06:40:21 Write Mode: CD
I 06:40:21 Write Type: SAO
I 06:40:21 Write Speed: 16x
I 06:40:21 Lock Volume: Yes
I 06:40:21 Test Mode: No
I 06:40:21 OPC: Yes
I 06:40:21 BURN-Proof: Enabled
I 06:40:21 Write Speed Successfully Set! - Effective: 2 822 KB/s (16x)
I 06:40:21 Advanced Settings - Force HT: No, Online HT: No, OverSpeed: No, SmartBurn: Yes
I 06:40:27 Filling Buffer... (20 MB)
I 06:40:28 Writing LeadIn... (CD-TEXT)
I 06:40:39 Writing Session 1 of 1... (4 Tracks, LBA: 0 - 171332, MCN: 0028943901420)
I 06:40:39 Writing Track 1 of 4... (AUDIO/2352, WAVE, LBA: 0 - 47882)
I 06:41:19 Writing Track 2 of 4... (AUDIO/2352, WAVE, LBA: 47883 - 101357)
I 06:42:04 Writing Track 3 of 4... (AUDIO/2352, WAVE, LBA: 101358 - 133007)
I 06:42:30 Writing Track 4 of 4... (AUDIO/2352, WAVE, LBA: 133008 - 171332)
I 06:43:02 Synchronising Cache...
I 06:43:09 Image MD5: 5f091f92ab824741dca969e640f453c4
I 06:43:09 Operation Successfully Completed! - Duration: 00:02:48
I 06:43:09 Average Write Rate: 2 771 KB/s (16.1x) - Maximum Write Rate: 2 790 KB/s (16.2x)
I 06:43:11 Close Request Acknowledged
I 06:43:11 Closing Down...
I 06:43:11 Shutting down SPTI...
I 06:43:11 ImgBurn closed!

 

Hope this helps.

Share this post


Link to post
Share on other sites

What if you burn with the NEC instead?

 

Update to the latest firmware first though. http://www.firmwarehq.com/NEC/ND-2500A/files.html

 

I just burnt the CUE you provided in your first post (with a different audio file though, everything else was the same) with my ihas524 and the disc plays fine. So it could be due to flaw in the SHM-165P6S MV9N firmware. (There's a different one (MS0RN) available here btw - http://www.firmwarehq.com/Lite-On/SHM-165P6S/files.html )

Share this post


Link to post
Share on other sites

...and now I'd repeated the same process with my SHM-165P6S.

 

; //****************************************\\
;   ImgBurn Version 2.5.3.0 - Log
;   Friday, 26 November 2010, 18:59:28
; \\****************************************//
;
;
I 18:27:08 ImgBurn Version 2.5.3.0 started!
I 18:27:08 Microsoft Windows Vista Ultimate Edition (6.0, Build 6002 : Service Pack 2)
I 18:27:08 Total Physical Memory: 3,143,248 KB  -  Available: 998,448 KB
I 18:27:08 Initialising SPTI...
I 18:27:08 Searching for SCSI / ATAPI devices...
I 18:27:08 -> Drive 1 - Info: DTSOFT BDROM 1.05 (W:) (Virtual)
I 18:27:08 -> Drive 2 - Info: ATAPI iHAS524   A BL2U (M:) (ATA)
I 18:27:08 -> Drive 3 - Info: HL-DT-ST BD-RE  GGW-H20L YL05 (O:) (ATA)
I 18:27:08 -> Drive 4 - Info: Optiarc DVD RW AD-7263S 1.02 (Q:) (ATA)
I 18:27:09 -> Drive 5 - Info: PIONEER DVD-RW  DVR-217F 1.07 (P:) (ATA)
I 18:27:09 -> Drive 6 - Info: PLEXTOR DVDR   PX-760A 1.07 (N:) (ATA)
I 18:27:09 -> Drive 7 - Info: ATAPI iHBS112   2 CL0F (U:) (SATA)
I 18:27:09 -> Drive 8 - Info: ATAPI iHES208   2 8L0C (S:) (SATA)
I 18:27:09 -> Drive 9 - Info: ELBY CLONEDRIVE 1.4 (V:) (SCSI)
I 18:27:09 -> Drive 10 - Info: HL-DT-ST BD-RE  BH10LS30 1.00 (R:) (SATA)
I 18:27:09 -> Drive 11 - Info: LITE-ON DVDRW SHM-165P6S MS0R (I:) (RAID)
I 18:27:09 -> Drive 12 - Info: PIONEER BD-RW   BDR-205 1.09 (X:) (SATA)
I 18:27:09 -> Drive 13 - Info: TSSTcorp DVDWBD SH-B123L SB02 (Y:) (SATA)
I 18:27:09 Found 2 DVD±RWs, 3 DVD±RW/RAMs, 1 BD-ROM, 1 BD-ROM/HD DVD-ROM, 2 BD-ROM/DVD±RWs, 3 BD-REs and 1 HD DVD-ROM/BD-RE!
I 18:51:56 Operation Started!
I 18:51:56 Device: [1:0:0] LITE-ON DVDRW SHM-165P6S MS0R (I:) (RAID)
I 18:51:57 Media Type: CD-RW (Disc ID: 97m34s25f, Mitsubishi Chemical Corp.) (Speeds: 16x)
I 18:51:57 Quick Erase: Yes
I 18:51:57 Erasing Disc...
I 18:52:40 Operation Successfully Completed! - Duration: 00:00:43
I 18:52:40 Operation Started!
I 18:52:40 Source File: C:\Users\Richard\Desktop\isrc test.cue
I 18:52:40 Source File Sectors: 17,427 (AUDIO/2352)
I 18:52:40 Source File Size: 40,988,304 bytes
I 18:52:40 Source File File System(s): None
I 18:52:40 Destination Device: [1:0:0] LITE-ON DVDRW SHM-165P6S MS0R (I:) (RAID)
I 18:52:40 Destination Media Type: CD-RW (Disc ID: 97m34s25f, Mitsubishi Chemical Corp.) (Speeds: 16x)
I 18:52:40 Destination Media Sectors: 359,847
I 18:52:40 Write Mode: CD
I 18:52:40 Write Type: SAO
I 18:52:40 Write Speed: 16x
I 18:52:40 Lock Volume: Yes
I 18:52:40 Test Mode: No
I 18:52:40 OPC: No
I 18:52:40 BURN-Proof: Enabled
I 18:52:40 Write Speed Successfully Set! - Effective: 2,822 KB/s (16x)
I 18:52:40 Advanced Settings - Force HT: No, Online HT: No, OverSpeed: No, SmartBurn: Yes
I 18:52:41 Filling Buffer... (40 MB)
I 18:52:43 Writing LeadIn... (CD-TEXT)
I 18:52:53 Writing Session 1 of 1... (1 Track, LBA: 0 - 17426)
I 18:52:53 Writing Track 1 of 1... (AUDIO/2352, MP3, LBA: 0 - 17426, ISRC: DEF058100970)
I 18:53:07 Synchronising Cache...
I 18:53:17 Image MD5: c6a2ef37558686c37bce4a9707e171f2
I 18:53:17 Exporting Graph Data...
I 18:53:17 Graph Data File: C:\Users\Richard\AppData\Roaming\ImgBurn\Graph Data Files\LITE-ON_DVDRW_SHM-165P6S_MS0R_26-NOVEMBER-2010_18-52_97m34s25f_16x.ibg
I 18:53:17 Export Successfully Completed!
I 18:53:17 Operation Successfully Completed! - Duration: 00:00:36
I 18:53:17 Average Write Rate: 2,859 KB/s (16.6x) - Maximum Write Rate: 2,859 KB/s (16.6x)
I 18:53:17 Cycling Tray before Verify...
W 18:53:25 Waiting for device to become ready...
I 18:53:38 Device Ready!
I 18:53:38 Operation Started!
I 18:53:38 Source Device: [1:0:0] LITE-ON DVDRW SHM-165P6S MS0R (I:) (RAID)
I 18:53:38 Source Media Type: CD-RW (Disc ID: 97m34s25f, Mitsubishi Chemical Corp.) (Speeds: 16x)
I 18:53:38 Image File: C:\Users\Richard\Desktop\isrc test.cue
I 18:53:38 Image File Sectors: 17,427 (AUDIO/2352)
I 18:53:38 Image File Size: 40,988,304 bytes
I 18:53:38 Image File File System(s): None
I 18:53:38 Read Speed (Data/Audio): MAX / MAX
I 18:53:38 Verifying Session 1 of 1... (1 Track, LBA: 0 - 17426)
I 18:53:38 Verifying Track 1 of 1... (AUDIO/2352, MP3, LBA: 0 - 17426, ISRC: DEF058100970)
I 18:53:58 Device MD5: c6a2ef37558686c37bce4a9707e171f2
I 18:53:58 Image MD5: c6a2ef37558686c37bce4a9707e171f2
I 18:53:58 Exporting Graph Data...
I 18:53:58 Graph Data File: C:\Users\Richard\AppData\Roaming\ImgBurn\Graph Data Files\LITE-ON_DVDRW_SHM-165P6S_MS0R_26-NOVEMBER-2010_18-52_97m34s25f_16x.ibg
I 18:53:58 Export Successfully Completed!
I 18:53:58 Operation Successfully Completed! - Duration: 00:00:19
I 18:53:58 Average Verify Rate: 2,106 KB/s (14.0x) - Maximum Verify Rate: 2,817 KB/s (18.8x)
I 18:59:27 Close Request Acknowledged
I 18:59:27 Closing Down...
I 18:59:28 Shutting down SPTI...
I 18:59:28 ImgBurn closed!

 

The disc plays fine in media player.

 

If you copy + paste your entire CUE, I'll be able to test it more thoroughly.

Share this post


Link to post
Share on other sites

Hi

 

Yep, you were right, it is/was a flaw in MV9N firmware. I updated to version MS0R and burned new cd, which plays flawlessly. If I remember right the MV9N is a patched version that I downloaded from myce.com.

 

Here is the cue file, just in case you are still interested:

 

REM GENRE Classical
REM DATE 1982
REM DISCID 2C08EC04
REM COMMENT "ExactAudioCopy v0.95b4"
CATALOG 0028943901420
PERFORMER "Camille Saint-Saens"
TITLE "Symphony No.3 - ORGAN"
FILE "Camille Saint-Saens - Symphony No.3 - ORGAN.wav" WAVE
 TRACK 01 AUDIO
   TITLE "1. Adagio - Allegro moderato -"
   PERFORMER "Camille Saint-Saens"
   ISRC DEF058100970
   INDEX 00 00:00:00
   INDEX 01 00:00:33
 TRACK 02 AUDIO
   TITLE "Poco adagio"
   PERFORMER "Camille Saint-Saens"
   ISRC DEF058100970
   INDEX 01 10:38:33
 TRACK 03 AUDIO
   TITLE "2. Allegro moderato - Presto - Allegro moderato"
   PERFORMER "Camille Saint-Saens"
   ISRC DEF058100970
   INDEX 01 22:31:33
 TRACK 04 AUDIO
   TITLE "Maetoso - Allegro - Molto Allegro - Pesante"
   PERFORMER "Camille Saint-Saens"
   ISRC DEF058100970
   INDEX 01 29:33:33

 

Thank you for your help.

Share this post


Link to post
Share on other sites
Sign in to follow this  

×

Important Information

By using this site, you agree to our Terms of Use.