Jump to content
John30

Blu-ray not readable despite all verifications are correct

Recommended Posts

I made with ImgBurn an ISO file of a HD video (1920x1080) *.m2t file to *.iso and *.mds file. Then this file (*.mds next the *.iso file) burned with the LG BE14NU40 to a BD-R LTH Type Verbatim 25GB / 6x disc.
All tests are good. See log attached.
Yet the Blu-ray disc is not readable in computer LG burner/player nor in a desktop player LG HR400.
Control with media-info is also correct !The virual player plays the file correctly.
What did I wrong ? Something with the region code ?
Thanks in advance for your help and advice.

 

I 15:34:44 ImgBurn Version 2.5.8.0 started!

I 15:34:44 Microsoft Windows 8 Core x64 Edition (6.2, Build 9200)

I 15:34:44 Total Physical Memory: 8.387.828 KiB - Available: 4.946.640 KiB

I 15:34:44 Initialising SPTI...

I 15:34:44 Searching for SCSI / ATAPI devices...

I 15:34:44 -> Drive 1 - Info: ELBY CLONEDRIVE 1.4 (N:) (SCSI)

I 15:34:44 -> Drive 2 - Info: ELBY CLONEDRIVE 1.4 (G:) (SCSI)

I 15:34:44 -> Drive 3 - Info: PLEXTOR DVDR PX-708A 1.12 (E:) (ATA)

I 15:34:45 -> Drive 4 - Info: HP CD-Writer+ 9300 1.0b (F:) (ATA)

I 15:34:45 -> Drive 5 - Info: ELBY CLONEDRIVE 1.4 (U:) (SCSI)

I 15:34:45 -> Drive 6 - Info: HL-DT-ST BD-RE BE14NU40 1.01-05 (V:) (USB 2.0)

I 15:34:45 Found 1 CD-RW, 1 DVD±RW, 3 BD-ROM/HD DVD-ROMs and 1 BD-RE XL!

I 15:38:05 Operation Started!

I 15:38:05 Source Device: [0:0:0] HL-DT-ST BD-RE BE14NU40 1.01 (V:) (USB)

I 15:38:05 Source Media Type: BD-R (Disc ID: VERBAT-IMu-000)

I 15:38:05 Source Media Supported Read Speeds: 2x; 4,2x; 6,2x

I 15:38:05 Source Media Supported Write Speeds: 2x; 4x; 6x

I 15:38:05 Source Media Sectors: 3.382.240

I 15:38:05 Source Media Size: 6.926.827.520 bytes

I 15:38:05 Image File: K:\video\OvdP\Z-Afrika\Z-Afrika BD.mds

I 15:38:05 Image File Sectors: 3.382.240 (MODE1/2048)

I 15:38:05 Image File Size: 6.926.827.520 bytes

I 15:38:05 Image File Volume Identifier: Z-Afrika BD

I 15:38:05 Image File Volume Set Identifier: 4A31533400339BC0

I 15:38:05 Image File Application Identifier: ImgBurn v2.5.8.0

I 15:38:05 Image File Implementation Identifier: ImgBurn

I 15:38:05 Image File File System(s): UDF (1.02)

I 15:38:05 Read Speed (Data/Audio): MAX / MAX

I 15:38:06 Read Speed - Effective: 2,6x - 6,2x

I 15:38:07 Verifying Session 1 of 1... (1 Track, LBA: 0 - 3382239)

I 15:38:07 Verifying Track 1 of 1... (MODE1/2048, LBA: 0 - 3382239)

I 15:46:03 Exporting Graph Data...

I 15:46:03 Graph Data File: C:\Users\Desktop\AppData\Roaming\ImgBurn\Graph Data Files\HL-DT-ST_BD-RE_BE14NU40_1.01_WOENSDAG-18-JANUARI-2017_15-38_VERBAT-IMu-000.ibg

I 15:46:03 Export Successfully Completed!

I 15:46:03 Operation Successfully Completed! - Duration: 00:07:56

I 15:46:03 Average Verify Rate: 14.271 KiB/s (3.3x) - Maximum Verify Rate: 17.280 KiB/s (3.9x)

 

 

 

MediaInfo General
ID : 0 (0x0)
Complete name : V:\VerslagFamilBD.m2t
Format : MPEG-TS
File size : 6.45 GiB
Duration : 32 min 41 s
Overall bit rate mode : Constant
Overall bit rate : 28.3 Mb/s

Video
ID : 1001 (0x3E9)
Menu ID : 1 (0x1)
Format : MPEG Video
Format version : Version 2
Format profile : Main@High
Format settings, BVOP : Yes
Format settings, Matrix : Default
Format settings, GOP : M=3, N=15
Format settings, picture structure : Frame
Codec ID : 2
Duration : 32 min 41 s
Bit rate mode : Variable
Bit rate : 26.7 Mb/s
Maximum bit rate : 27.4 Mb/s
Width : 1 920 pixels
Height : 1 080 pixels
Display aspect ratio : 16:9
Frame rate : 25.000 FPS
Color space : YUV
Chroma subsampling : 4:2:0
Bit depth : 8 bits
Scan type : Interlaced
Scan order : Bottom Field First
Compression mode : Lossy
Bits/(Pixel*Frame) : 0.514
Time code of first frame : 00:00:00:00
Time code source : Group of pictures header
GOP, Open/Closed : Closed
Stream size : 6.09 GiB (94%)

Audio
ID : 1002 (0x3EA)
Menu ID : 1 (0x1)
Format : AC-3
Format/Info : Audio Coding 3
Mode extension : CM (complete main)
Format settings, Endianness : Big
Codec ID : 129
Duration : 32 min 41 s
Bit rate mode : Constant
Bit rate : 192 kb/s
Channel(s) : 2 channels
Channel positions : Front: L R
Sampling rate : 48.0 kHz
Frame rate : 31.250 FPS (1536 spf)
Bit depth : 16 bits
Compression mode : Lossy
Stream size : 44.9 MiB (1%)

Share this post


Link to post
Share on other sites

A Blu-Ray player not playing a LTH disc is probably understandable.  Compatibility with those discs is notoriously bad.  Now, why a PC software player doesn't the recognize the disc as playable is another thing.  Yet, you say a player software does play the file from the disc?  Does your Blu-Ray physical dedicated standalone player support the playback of m2t files?  You didn't convert this file to a playable Blu-Ray with reauthoring software, did you?

 

 

The first test I'd try is to see if you can access the contents in Windows/File Explorer.  Make sure you can navigate to the contents on the disc that way.  That way, the disc is readable, just not playing in a player.  If it's not playing in a player, it's most likely not a region issue.  I don't think you can set regions on recordable DVD, so I don't know if it matters on BD or not.  You mention region being a factor, so it sounds like you're trying to convert a m2t file to a Blu-Ray movie disc?  Sorry, I know very little about Blu-Ray movie discs.

Share this post


Link to post
Share on other sites

Neither the region or LTH type have anything to do with the movie playing or of sequence. Incorrect scene order is usually a protection issue or the player picking the wrong playlist

 

Sent from my Nexus 6P with Tapatalk.

Share this post


Link to post
Share on other sites

Where was sequence or scene order mentioned? I'm only browsing on my phone but I've scanned the thread a few times and can see no mention of it before your post Ch3vr0n.

 

John30, What db said is correct. Unless your playback device supports playing m2t files, you'll have to convert it into the proper BD Video format/structure and burn that.

Share this post


Link to post
Share on other sites

Must have been thinking I was on a different forum. Just ignore or delete :-)

 

Sent from my Nexus 6P with Tapatalk.

Share this post


Link to post
Share on other sites

The editing of the HD video-camera files in *.MTS was done with Adobe premiere Pro CS6. In the mean time I've managed to play the Blu-ray burned disc (*.m2t) on the computer with the apps "Ace Player", "movies and TV", and also “Windows media player”, and “VLC media player”. But not on the stand-alone player LG HR 400. The LG HR400 has the “latest” update.

Share this post


Link to post
Share on other sites

Well, the most logical conclusion is the LG stand alone doesn't support the playback of .M2t files.  Unless you've gotten it do so before.  Then, there is something odd going on somewhere.

Share this post


Link to post
Share on other sites

×

Important Information

By using this site, you agree to our Terms of Use.