Jump to content
Sign in to follow this  
nergall

Some mixed mode CDs are ripped with an unknown audio track format

Recommended Posts

Hi,

 

When ripping some old CDs I have, I noticed that some audio tracks are marked as follows:

 

ISRC TCJAA1940???

 

These images also can't be mounted with any virtual drives I tried.

 

Any idea?

 

Thanks!

Share this post


Link to post
Share on other sites

Here it is:

 

I 19:47:05 Operation Started!
I 19:47:05 Source Device: [0:0:0] PLEXTOR DVDR   PX-755A 1.08 (F:) (USB)
I 19:47:05 Source Media Type: CD-R (Disc ID: 97m32s00f, TDK Corp.)
I 19:47:05 Source Media Supported Read Speeds: 4x, 8x, 24x, 32x, 40x, 48x
I 19:47:05 Source Media Supported Write Speeds: 4x, 8x, 16x, 32x, 48x
I 19:47:06 Source Media Sectors: 308,329
I 19:47:06 Source Media Size: 725,189,808 bytes
I 19:47:06 Source Media Volume Identifier: ___
I 19:47:06 Source Media File System(s): ISO9660, Joliet
I 19:47:06 Read Speed (Data/Audio): MAX / 8x
I 19:47:06 Destination File: C:\Downloads\image.bin
I 19:47:06 Destination Free Space: 747,222,245,376 Bytes (729,709,224.00 KiB) (712,606.66 MiB) (695.90 GiB)
I 19:47:06 Destination File System: NTFS
I 19:47:06 File Splitting: Auto
I 19:47:21 Read Speed - Effective: 48x
I 19:47:22 Reading Session 1 of 1... (10 Tracks, LBA: 0 - 308328)
I 19:47:22 Reading Track 1 of 10... (MODE2/FORM1/2352, LBA: 0 - 146130)
I 19:48:32 Reading Track 2 of 10... (AUDIO/2352, LBA: 146131 - 164931, ISRC: TCJAA1940???)
I 19:49:06 Reading Track 3 of 10... (AUDIO/2352, LBA: 164932 - 180291, ISRC: TCJAA1940???)
I 19:49:31 Reading Track 4 of 10... (AUDIO/2352, LBA: 180292 - 196482, ISRC: TCJAA1940???)
I 19:49:58 Reading Track 5 of 10... (AUDIO/2352, LBA: 196483 - 211048, ISRC: TCJAA1940???)
I 19:50:22 Reading Track 6 of 10... (AUDIO/2352, LBA: 211049 - 227752, ISRC: TCJAA1940???)
I 19:50:50 Reading Track 7 of 10... (AUDIO/2352, LBA: 227753 - 244494, ISRC: TCJAA1940???)
I 19:51:18 Reading Track 8 of 10... (AUDIO/2352, LBA: 244495 - 257034, ISRC: TCJAA1940???)
I 19:51:39 Reading Track 9 of 10... (AUDIO/2352, LBA: 257035 - 271900, ISRC: TCJAA1940???)
I 19:52:04 Reading Track 10 of 10... (AUDIO/2352, LBA: 271901 - 308328, ISRC: TCJAA1940???)
I 19:53:05 Export Successfully Completed!
I 19:53:05 Operation Successfully Completed! - Duration: 00:05:59
I 19:53:05 Average Read Rate: 1,972 KiB/s (10.0x) - Maximum Read Rate: 6,109 KiB/s (30.9x)

Share this post


Link to post
Share on other sites

If that ISRC is wrong, it's because the drive is reporting it incorrectly.

 

I can't see an issue with the rest of it.

 

CDDA is only ever in one format, it can't be 'unknown'.

 

Can you attach the CUE it produced please?

Share this post


Link to post
Share on other sites

Here's the cue file -

 

FILE "Rollcage.bin" BINARY
  TRACK 01 MODE2/2352
    FLAGS DCP
    INDEX 01 00:00:00
  TRACK 02 AUDIO
    PREGAP 00:02:00
    ISRC TCJAA1940???
    FLAGS DCP
    INDEX 00 32:28:31
    INDEX 01 32:28:34
  TRACK 03 AUDIO
    ISRC TCJAA1940???
    FLAGS DCP
    INDEX 00 36:37:07
    INDEX 01 36:39:02
  TRACK 04 AUDIO
    ISRC TCJAA1940???
    FLAGS DCP
    INDEX 00 40:01:67
    INDEX 01 40:03:67
  TRACK 05 AUDIO
    ISRC TCJAA1940???
    FLAGS DCP
    INDEX 00 43:37:58
    INDEX 01 43:39:53
  TRACK 06 AUDIO
    ISRC TCJAA1940???
    FLAGS DCP
    INDEX 00 46:51:74
    INDEX 01 46:53:69
  TRACK 07 AUDIO
    ISRC TCJAA1940???
    FLAGS DCP
    INDEX 00 50:34:53
    INDEX 01 50:36:48
  TRACK 08 AUDIO
    ISRC TCJAA1940???
    FLAGS DCP
    INDEX 00 54:17:70
    INDEX 01 54:19:70
  TRACK 09 AUDIO
    ISRC TCJAA1940???
    FLAGS DCP
    INDEX 00 57:05:10
    INDEX 01 57:07:05
  TRACK 10 AUDIO
    ISRC TCJAA1940???
    FLAGS DCP
    INDEX 00 60:23:26
    INDEX 01 60:25:21

Share this post


Link to post
Share on other sites
Sign in to follow this  

×

Important Information

By using this site, you agree to our Terms of Use.