Jump to content

ssjkakaroto

Members
  • Posts

    98
  • Joined

  • Last visited

Everything posted by ssjkakaroto

  1. Well, if you really care about the quality of the songs, there's no alternative than to use EAC to rip your songs and use either EAC or Burrrn to burn your songs with proper offset correction. Imgburn is not a replacement to EAC, and I don't think it intends to be.
  2. I just opened a few threads at once and I got the error. I tried reloading each thread and it didn't happen again I'm also on XP 32-bit.
  3. Why are you reripping the disc if you already have the files ("images of Audio CDs mounted with DAEMON Tools")?
  4. There's already a ongoing discussion about it: http://forum.imgburn.com/index.php?showtopic=12282
  5. That's true Have you tried to contact them personally? Maybe you could add a warning in the installation saying that if you got this program from sites x, y or z you were scammed.
  6. Isn't the losing party responsible for paying advocacy fees?
  7. Just out of curiosity LUK, have you taken any legal action? Macrovision didn't think twice before sending you a C&D letter so why should you?
  8. If you're on XP you can use Daemon Tools 3.47, which doesn't use SPTD.
  9. I've lost count of the how many times I almost fell of my chair when I heard that sound! It's like those ads that shows a very quiet and calm landscape and then all of a sudden a screaming monster pops up! Sometimes after a reformat I forget to disable it.
  10. Thanks for all the work with this program Daystrom M5, it's really appreciated
  11. I'm sorry, what I meant was multitrack images with multiple files, here's a example: FILE "Descent II (USA) (v1.0) (Track 01).bin" BINARY TRACK 01 MODE1/2352 INDEX 01 00:00:00 FILE "Descent II (USA) (v1.0) (Track 02).bin" BINARY TRACK 02 AUDIO INDEX 00 00:00:00 INDEX 01 00:02:00 FILE "Descent II (USA) (v1.0) (Track 03).bin" BINARY TRACK 03 AUDIO INDEX 00 00:00:00 INDEX 01 00:02:00 FILE "Descent II (USA) (v1.0) (Track 04).bin" BINARY TRACK 04 AUDIO INDEX 00 00:00:00 INDEX 01 00:02:00 FILE "Descent II (USA) (v1.0) (Track 05).bin" BINARY TRACK 05 AUDIO INDEX 00 00:00:00 INDEX 01 00:02:00 FILE "Descent II (USA) (v1.0) (Track 06).bin" BINARY TRACK 06 AUDIO INDEX 00 00:00:00 INDEX 01 00:02:00 FILE "Descent II (USA) (v1.0) (Track 07).bin" BINARY TRACK 07 AUDIO INDEX 00 00:00:00 INDEX 01 00:02:00 FILE "Descent II (USA) (v1.0) (Track 08).bin" BINARY TRACK 08 AUDIO INDEX 00 00:00:00 INDEX 01 00:02:00 FILE "Descent II (USA) (v1.0) (Track 09).bin" BINARY TRACK 09 AUDIO INDEX 00 00:00:00 INDEX 01 00:02:00 FILE "Descent II (USA) (v1.0) (Track 10).bin" BINARY TRACK 10 AUDIO INDEX 00 00:00:00 INDEX 01 00:02:00 FILE "Descent II (USA) (v1.0) (Track 11).bin" BINARY TRACK 11 AUDIO INDEX 00 00:00:00 INDEX 01 00:02:00 FILE "Descent II (USA) (v1.0) (Track 12).bin" BINARY TRACK 12 AUDIO INDEX 00 00:00:00 INDEX 01 00:02:00 FILE "Descent II (USA) (v1.0) (Track 13).bin" BINARY TRACK 13 AUDIO INDEX 00 00:00:00 INDEX 01 00:02:00
  12. I'm on Window$ XP 32-bit so I wouldn't know about other OSs. I have a lot of multitrack images (audio+data or only audio) and DT is the only one that can mount those images. BTW, do you guys know of a similar program for linux, one that can mount multitrack images?
  13. BTW, Daemon Tools 3.47 doesn't use SPTD so you can use that as a Virtual Drive. IMHO, it's much better than the other alternatives.
  14. OMFG! I have had this speed issue for such a long time and never knew what it was! If it wasn't for this new warning in Imgburn I'd still be wondering why this happens. Thanks a lot!
  15. I can't believe it took me so long to find out this new version Thanks a lot LUK! :worthy: :worthy:
  16. WOW, that was fast! Thanks LUK! :worthy: :worthy:
  17. Amazing as usual LUK! Thanks a lot! :worthy: :worthy: :worthy:
  18. What if you want to burn the audio files as a data disc?
  19. I prefer only one icon too, but I would like for it to have more options when you right-click on it.
  20. You can use Burn to the Brim to sort your files into directories of 4.37GB. It won't copy your files, just move.
  21. Holiday?? I thought you didn't know what that meant!
  22. Hi LUK, I'm noticing a small annoyance that's easily reproducible here: 1) Have a program in maximized window mode 2) Open Imburn and enable minimize to tray and drop zone (don't know if this last one makes any difference) 3) Burn a DVD in build mode with verify enabled 4) When it starts burning minimize it [to tray] and have the other program as the active window 5) When the successful burn message appears on the tray, double-click on the Imgburn icon 6) The Operation Successfully Completed box will appear, click OK Now Imgburn will be on the taskbar and not on the system tray also the drop zone will reappear, but the main window itself doesn't appear and can't be accessed/minimized by clicking on it on the taskbar. The only way to see the window again is by right clicking on it on the taskbar, selecting minimize to system tray and double-clicking on the tray icon. This doesn't happen if minimize to tray is disabled.
  23. LUK! FTW! Thanks a lot for another great release!
×
×
  • Create New...

Important Information

By using this site, you agree to our Terms of Use.