Jump to content

Palpatine

Members
  • Content Count

    5
  • Joined

  • Last visited

Posts posted by Palpatine


  1. I made them from a site that build text to speech.

    I am trying to make a CD for a big game event, with 20 musics to recognize and twenty little announcements "this is music number one" between the musics.

    The annoucement should be lasting a few seconds.

    Note that there was no issue at all with my previous PC and the software that came with it (I do not remember the name of the software).

     

    Where are you getting all of these tiny < 2 seconds mp3 files from?

     

    Not all drives will burn them (tracks less than 2 seconds long - sometimes even 4 seconds) - yours being one of them.


  2. I have installed the firmware from the link provided and it did not change anything (I was not very surprised since I had installed the drivers that were shipped with the PC)

    I am pushing the windows updates in case that helps, as you suggest.

     

    Below in lower case is the CUE file content, as requested.All the indexes are 01 and 00.00.00, pehaps that is the issue (in which case the bug is in the CUE creation)

     

     

    FILE "C:\Users\lefranco\Documents\rallye\musiques films a graver\01-a.mp3" MP3

    REM FILE-DECODED-SIZE 00:01:20

    TRACK 01 AUDIO

    INDEX 01 00:00:00

    FILE "C:\Users\lefranco\Documents\rallye\musiques films a graver\01-b.mp3" MP3

    REM FILE-DECODED-SIZE 05:52:22

    TRACK 02 AUDIO

    INDEX 01 00:00:00

    FILE "C:\Users\lefranco\Documents\rallye\musiques films a graver\02-a.mp3" MP3

    REM FILE-DECODED-SIZE 00:01:25

    TRACK 03 AUDIO

    INDEX 01 00:00:00

    FILE "C:\Users\lefranco\Documents\rallye\musiques films a graver\02-b.mp3" MP3

    REM FILE-DECODED-SIZE 03:20:37

    TRACK 04 AUDIO

    INDEX 01 00:00:00

    FILE "C:\Users\lefranco\Documents\rallye\musiques films a graver\03-a.mp3" MP3

    REM FILE-DECODED-SIZE 00:01:31

    TRACK 05 AUDIO

    INDEX 01 00:00:00

    FILE "C:\Users\lefranco\Documents\rallye\musiques films a graver\03-b.mp3" MP3

    REM FILE-DECODED-SIZE 02:54:14

    TRACK 06 AUDIO

    INDEX 01 00:00:00

    FILE "C:\Users\lefranco\Documents\rallye\musiques films a graver\04-a.mp3" MP3

    REM FILE-DECODED-SIZE 00:01:43

    TRACK 07 AUDIO

    INDEX 01 00:00:00

    FILE "C:\Users\lefranco\Documents\rallye\musiques films a graver\04-b.mp3" MP3

    REM FILE-DECODED-SIZE 02:48:10

    TRACK 08 AUDIO

    INDEX 01 00:00:00

    FILE "C:\Users\lefranco\Documents\rallye\musiques films a graver\05-a.mp3" MP3

    REM FILE-DECODED-SIZE 00:01:49

    TRACK 09 AUDIO

    INDEX 01 00:00:00

    FILE "C:\Users\lefranco\Documents\rallye\musiques films a graver\05-b.mp3" MP3

    REM FILE-DECODED-SIZE 02:14:68

    TRACK 10 AUDIO

    INDEX 01 00:00:00

    FILE "C:\Users\lefranco\Documents\rallye\musiques films a graver\06-a.mp3" MP3

    REM FILE-DECODED-SIZE 00:01:47

    TRACK 11 AUDIO

    INDEX 01 00:00:00

    FILE "C:\Users\lefranco\Documents\rallye\musiques films a graver\06-b.mp3" MP3

    REM FILE-DECODED-SIZE 03:04:17

    TRACK 12 AUDIO

    INDEX 01 00:00:00

    FILE "C:\Users\lefranco\Documents\rallye\musiques films a graver\07-a.mp3" MP3

    REM FILE-DECODED-SIZE 00:01:43

    TRACK 13 AUDIO

    INDEX 01 00:00:00

    FILE "C:\Users\lefranco\Documents\rallye\musiques films a graver\07-b.mp3" MP3

    REM FILE-DECODED-SIZE 03:51:22

    TRACK 14 AUDIO

    INDEX 01 00:00:00

    FILE "C:\Users\lefranco\Documents\rallye\musiques films a graver\08-a.mp3" MP3

    REM FILE-DECODED-SIZE 00:01:41

    TRACK 15 AUDIO

    INDEX 01 00:00:00

    FILE "C:\Users\lefranco\Documents\rallye\musiques films a graver\08-b.mp3" MP3

    REM FILE-DECODED-SIZE 02:56:21

    TRACK 16 AUDIO

    INDEX 01 00:00:00

    FILE "C:\Users\lefranco\Documents\rallye\musiques films a graver\09-a.mp3" MP3

    REM FILE-DECODED-SIZE 00:01:39

    TRACK 17 AUDIO

    INDEX 01 00:00:00

    FILE "C:\Users\lefranco\Documents\rallye\musiques films a graver\09-b.mp3" MP3

    REM FILE-DECODED-SIZE 05:59:42

    TRACK 18 AUDIO

    INDEX 01 00:00:00

    FILE "C:\Users\lefranco\Documents\rallye\musiques films a graver\10-a.mp3" MP3

    REM FILE-DECODED-SIZE 00:01:43

    TRACK 19 AUDIO

    INDEX 01 00:00:00

    FILE "C:\Users\lefranco\Documents\rallye\musiques films a graver\10-b.mp3" MP3

    REM FILE-DECODED-SIZE 05:52:65

    TRACK 20 AUDIO

    INDEX 01 00:00:00

    FILE "C:\Users\lefranco\Documents\rallye\musiques films a graver\11-a.mp3" MP3

    REM FILE-DECODED-SIZE 00:01:39

    TRACK 21 AUDIO

    INDEX 01 00:00:00

    FILE "C:\Users\lefranco\Documents\rallye\musiques films a graver\11-b.mp3" MP3

    REM FILE-DECODED-SIZE 03:35:23

    TRACK 22 AUDIO

    INDEX 01 00:00:00

    FILE "C:\Users\lefranco\Documents\rallye\musiques films a graver\12-a.mp3" MP3

    REM FILE-DECODED-SIZE 00:01:39

    TRACK 23 AUDIO

    INDEX 01 00:00:00

    FILE "C:\Users\lefranco\Documents\rallye\musiques films a graver\12-b.mp3" MP3

    REM FILE-DECODED-SIZE 05:05:48

    TRACK 24 AUDIO

    INDEX 01 00:00:00

    FILE "C:\Users\lefranco\Documents\rallye\musiques films a graver\13-a.mp3" MP3

    REM FILE-DECODED-SIZE 00:01:45

    TRACK 25 AUDIO

    INDEX 01 00:00:00

    FILE "C:\Users\lefranco\Documents\rallye\musiques films a graver\13-b.mp3" MP3

    REM FILE-DECODED-SIZE 03:10:13

    TRACK 26 AUDIO

    INDEX 01 00:00:00

    FILE "C:\Users\lefranco\Documents\rallye\musiques films a graver\14-a.mp3" MP3

    REM FILE-DECODED-SIZE 00:01:53

    TRACK 27 AUDIO

    INDEX 01 00:00:00

    FILE "C:\Users\lefranco\Documents\rallye\musiques films a graver\14-b.mp3" MP3

    REM FILE-DECODED-SIZE 02:48:43

    TRACK 28 AUDIO

    INDEX 01 00:00:00

    FILE "C:\Users\lefranco\Documents\rallye\musiques films a graver\15-a.mp3" MP3

    REM FILE-DECODED-SIZE 00:01:45

    TRACK 29 AUDIO

    INDEX 01 00:00:00

    FILE "C:\Users\lefranco\Documents\rallye\musiques films a graver\15-b.mp3" MP3

    REM FILE-DECODED-SIZE 04:46:66

    TRACK 30 AUDIO

    INDEX 01 00:00:00

    FILE "C:\Users\lefranco\Documents\rallye\musiques films a graver\16-a.mp3" MP3

    REM FILE-DECODED-SIZE 00:01:43

    TRACK 31 AUDIO

    INDEX 01 00:00:00

    FILE "C:\Users\lefranco\Documents\rallye\musiques films a graver\16-b.mp3" MP3

    REM FILE-DECODED-SIZE 04:42:49

    TRACK 32 AUDIO

    INDEX 01 00:00:00

    FILE "C:\Users\lefranco\Documents\rallye\musiques films a graver\17-a.mp3" MP3

    REM FILE-DECODED-SIZE 00:01:53

    TRACK 33 AUDIO

    INDEX 01 00:00:00

    FILE "C:\Users\lefranco\Documents\rallye\musiques films a graver\17-b.mp3" MP3

    REM FILE-DECODED-SIZE 03:15:13

    TRACK 34 AUDIO

    INDEX 01 00:00:00

    FILE "C:\Users\lefranco\Documents\rallye\musiques films a graver\18-a.mp3" MP3

    REM FILE-DECODED-SIZE 00:01:55

    TRACK 35 AUDIO

    INDEX 01 00:00:00

    FILE "C:\Users\lefranco\Documents\rallye\musiques films a graver\18-b.mp3" MP3

    REM FILE-DECODED-SIZE 01:46:18

    TRACK 36 AUDIO

    INDEX 01 00:00:00

    FILE "C:\Users\lefranco\Documents\rallye\musiques films a graver\19-a.mp3" MP3

    REM FILE-DECODED-SIZE 00:01:67

    TRACK 37 AUDIO

    INDEX 01 00:00:00

    FILE "C:\Users\lefranco\Documents\rallye\musiques films a graver\19-b.mp3" MP3

    REM FILE-DECODED-SIZE 02:48:51

    TRACK 38 AUDIO

    INDEX 01 00:00:00

    FILE "C:\Users\lefranco\Documents\rallye\musiques films a graver\20-a.mp3" MP3

    REM FILE-DECODED-SIZE 00:02:33

    TRACK 39 AUDIO

    INDEX 01 00:00:00

    FILE "C:\Users\lefranco\Documents\rallye\musiques films a graver\20-b.mp3" MP3

    REM FILE-DECODED-SIZE 02:09:61

    TRACK 40 AUDIO

    INDEX 01 00:00:00

     

     

     

     

     

    Install the latest firmware for the drive.

     

    http://www.firmwarehq.com/LG/GH22NS70/files.html

     

    Copy + paste the contents of a CUE that won't burn please (open it in notepad).

     

    p.s. service pack 1 is out for Windows 7.


  3. Hello

     

    I get the error in the subject for every attemp I make to burn a cue file.

    Cue file was made following procedure provided on the official site for making a music CD from a set of MP3 files.

    PC is new (bought a week ago)

    Img version is new : downloaded yesterday.

    Tried many CDs, Read and Read Write with same result.

     

    Except a bug in ImgBurn software, I see non explication. If not a bug, then it means you have to be pretty much an expert to burning CD nowadays ;-)

     

    PS : I tried something in discovery mode, it took ages and the CD was not readable on the reader...

     

    Copy of log below :

     

     

    I 15:07:45 ImgBurn Version 2.5.7.0 started!

    I 15:07:45 Microsoft Windows 7 Ultimate x64 Edition (6.1, Build 7600)

    I 15:07:45 Total Physical Memory: 4 175 824 KB - Available: 2 877 516 KB

    I 15:07:45 Initialising SPTI...

    I 15:07:45 Searching for SCSI / ATAPI devices...

    I 15:07:45 -> Drive 1 - Info: HL-DT-ST DVDRAM GH22NS70 EX00-06 (D:) (ATAPI)

    I 15:07:45 Found 1 DVD±RW/RAM!

    I 15:07:50 Operation Started!

    I 15:07:50 Source File: C:\Users\lefranco\Desktop\mus.cue

    I 15:07:50 Source File Sectors: 331 181 (AUDIO/2352)

    I 15:07:50 Source File Size: 778 937 712 bytes

    I 15:07:50 Source File File System(s): None

    I 15:07:50 Destination Device: [0:1:0] HL-DT-ST DVDRAM GH22NS70 EX00 (D:) (ATAPI)

    I 15:07:50 Destination Media Type: CD-RW (Disc ID: 97m22s60f, Daxon)

    I 15:07:50 Destination Media Supported Write Speeds: 4x

    I 15:07:50 Destination Media Sectors: 335 973

    I 15:07:50 Write Mode: CD

    I 15:07:50 Write Type: SAO

    I 15:07:51 Write Speed: MAX

    I 15:07:51 Lock Volume: Yes

    I 15:07:51 Test Mode: No

    I 15:07:51 OPC: No

    I 15:07:51 BURN-Proof: Enabled

    I 15:07:51 Write Speed Successfully Set! - Effective: 706 KB/s (4x)

    E 15:07:51 Failed to send Cue Sheet!

    E 15:07:51 Reason: Invalid Field in Parameter List

    E 15:07:55 Operation Failed! - Duration: 00:00:04

    I 15:07:55 Average Write Rate: N/A - Maximum Write Rate: N/A

     

    Regards

×

Important Information

By using this site, you agree to our Terms of Use.