Jump to content

JolietJake

Members
  • Content Count

    19
  • Joined

  • Last visited

About JolietJake

  • Rank
    ISF Newbie
  1. JolietJake

    How to install or update ImgBurn (with pictures!)

    How many of the whiners have actually donated to the cause?
  2. JolietJake

    Love the new v2.5.0.0

    Quality software and I've just donated, dunno if it's the first time or not but what the hell!
  3. JolietJake

    ConnectFilters(Source, Sample Grabber)Failed!

    Downloaded it to give it a whirl. Thanks.
  4. Hi, Had ImgBurn installed before and working well thanks to some help from Lightning. I've just reformatted and reinstalled everything. Well I say everything but when I double click the .cue file to burn my FLAC albums I get this message... I had installed FLAC 1.2.1b but clearly I have to install something else. What should I install? Did a search with the title of this thread and found nothing. ImgBurn log file included. Thanks, JJ XP Home SP3 NOD32 V3 Comodo Firewall Pro ImgBurn v2.4.2.0 ================= EDIT!!! I went through the old posts I made on here and downloaded the DCBass Sourcefile, installed it and everything is working perfectly! This thread can be closed. ImgBurn.log
  5. JolietJake

    incorporate imgburn into ripit4me??

    and if you find it, stick the link in here please!
  6. JolietJake

    Unsupported track format?

    MODEX/2XXX Trying to burn a cue file for some FLACS. What does this mean? Thanks. XP Home Latest Imgburn Cue sheet REM GENRE "Alternative Rock" REM DATE 1985 REM DISCID 060F5112 REM COMMENT "ExactAudioCopy v0.95b4" PERFORMER "Meat Puppets" TITLE "Up On The Sun" FILE "01 - Up On The Sun.wav" WAVE TRACK 01 AUDIO TITLE "Up On The Sun" PERFORMER "Meat Puppets" INDEX 01 00:00:00 TRACK 02 AUDIO TITLE "Maiden's Milk" PERFORMER "Meat Puppets" INDEX 00 04:02:42 FILE "02 - Maiden's Milk.wav" WAVE INDEX 01 00:00:00 TRACK 03 AUDIO TITLE "Away" PERFORMER "Meat Puppets" INDEX 00 03:18:25 FILE "03 - Away.wav" WAVE INDEX 01 00:00:00 TRACK 04 AUDIO TITLE "Animal Kingdom" PERFORMER "Meat Puppets" INDEX 00 03:25:67 FILE "04 - Animal Kingdom.wav" WAVE INDEX 01 00:00:00 TRACK 05 AUDIO TITLE "Hot Pink" PERFORMER "Meat Puppets" INDEX 00 01:24:20 FILE "05 - Hot Pink.wav" WAVE INDEX 01 00:00:00 TRACK 06 AUDIO TITLE "Swimming Ground" PERFORMER "Meat Puppets" INDEX 00 03:25:73 FILE "06 - Swimming Ground.wav" WAVE INDEX 01 00:00:00 TRACK 07 AUDIO TITLE "Buckethead" PERFORMER "Meat Puppets" INDEX 00 03:04:70 FILE "07 - Buckethead.wav" WAVE INDEX 01 00:00:00 TRACK 08 AUDIO TITLE "Too Real" PERFORMER "Meat Puppets" INDEX 00 02:20:60 FILE "08 - Too Real.wav" WAVE INDEX 01 00:00:00 TRACK 09 AUDIO TITLE "Enchanted Porkfist" PERFORMER "Meat Puppets" INDEX 00 02:10:50 FILE "09 - Enchanted Porkfist.wav" WAVE INDEX 01 00:00:00 TRACK 10 AUDIO TITLE "Seal Whales" PERFORMER "Meat Puppets" INDEX 00 02:28:18 FILE "10 - Seal Whales.wav" WAVE INDEX 01 00:00:00 TRACK 11 AUDIO TITLE "Two Rivers" PERFORMER "Meat Puppets" INDEX 00 02:19:23 FILE "11 - Two Rivers.wav" WAVE INDEX 01 00:00:00 TRACK 12 AUDIO TITLE "Creator" PERFORMER "Meat Puppets" INDEX 00 03:19:68 FILE "12 - Creator.wav" WAVE INDEX 01 00:00:00 TRACK 13 AUDIO TITLE "Hot Pink (Bonus)" PERFORMER "Meat Puppets" INDEX 00 02:08:60 FILE "13 - Hot Pink (Bonus).wav" WAVE INDEX 01 00:00:00 TRACK 14 AUDIO TITLE "Up On The Sun (Bonus)" PERFORMER "Meat Puppets" INDEX 00 03:53:45 FILE "14 - Up On The Sun (Bonus).wav" WAVE INDEX 01 00:00:00 TRACK 15 AUDIO TITLE "Mother American Marshmallow Bbonus)" PERFORMER "Meat Puppets" INDEX 00 04:26:20 FILE "15 - Mother American Marshmallow Bbonus).wav" WAVE INDEX 01 00:00:00 TRACK 16 AUDIO TITLE "Embodiment of Evil (Bonus)" PERFORMER "Meat Puppets" INDEX 00 04:25:45 FILE "16 - Embodiment of Evil (Bonus).wav" WAVE INDEX 01 00:00:00 TRACK 17 AUDIO TITLE "Hot Pink (Bonus II)" PERFORMER "Meat Puppets" INDEX 00 01:51:38 FILE "17 - Hot Pink (Bonus II).wav" WAVE INDEX 01 00:00:00 TRACK 18 MODEx/2xxx TITLE "DATA" PERFORMER "Meat Puppets" INDEX 00 08:35:25
  7. JolietJake

    error

    It was for my NEC drive. Downloaded the update and double clicked on it and it flashed itself. It was an official firmware release and not one some bloke had made.
  8. JolietJake

    Failed to send cue sheet (Oh no!!)

    Yes it's there. This is strange. When I opened winamp yesterday to play it it immediately fired up Gracenote to look up the song titles. As per the usual gracenote efforts, only the track that's playing is in the media list, the others are blank until they play. I'll try to find where winamp stores the gracenote info and delete this then re try the disk and see if it reads the disk text.
  9. JolietJake

    Failed to send cue sheet (Oh no!!)

    Yeah, no probs... ; //****************************************\\ ; ImgBurn Version 2.4.1.0 - Log ; Thursday, 10 April 2008, 01:02:34 ; \\****************************************// ; ; I 01:02:25 ImgBurn Version 2.4.1.0 started! I 01:02:25 Microsoft Windows XP Home Edition (5.1, Build 2600 : Service Pack 2) I 01:02:25 Total Physical Memory: 2,096,304 KB - Available: 1,451,104 KB I 01:02:25 Initialising SPTI... I 01:02:25 Searching for SCSI / ATAPI devices... I 01:02:25 Found 1 DVD
  10. JolietJake

    Failed to send cue sheet (Oh no!!)

    Yeah, Winamp reads CD text. It's not a major deal breaker for me as my hifi and car stereo both don't! Converting it in FLAC frontend keeps the cd text in there, somehow!
  11. JolietJake

    Failed to send cue sheet (Oh no!!)

    I installed that filter from DSP and burnt the Tool disk from the cue file. It worked fine and played ok too. On playing the disk in winamp it didn't have the track titles and had to look up gracenote. I had also disabled the illiminable entries in aviCodec. -------------------- "If you open the file in graphedit and right click on the source box to bring up properties, you might get a clue that way." I get this message... The requested property page could not be displayed.
  12. JolietJake

    Failed to send cue sheet (Oh no!!)

    "Encoded by FLAC v1.1.4a with FLAC Frontend v1.7.1" That's the tag in FLACfrontend but I don't know if that's any use to you. Looking in AVICodec under the 'codecs and filters' tab and clicking the 'Directshow' radio button, there's a massive list but the FLAC decode/encode are both illiminable. K-Lite codec pack\filters\illiminable\dsfFLACDecoder.dll version 1.0.0.1
  13. JolietJake

    Failed to send cue sheet (Oh no!!)

    OK, thanks for that. I've been going down the route of FLAC Frontend - WAV then burning. It would obviously be slightly less hassle burning straight from the cue. Cheers.
  14. JolietJake

    Failed to send cue sheet (Oh no!!)

    Easy to see I don't know what I'm doing! Microsoft Windows XP [Version 5.1.2600] © Copyright 1985-2001 Microsoft Corp. C:\Documents and Settings\JJ>f: F:\>cd "\Tool-Aenima(1996)\Tool-Aenima(1996) [FLAC]"dir The system cannot find the path specified. F:\>cd "\Tool - Aenima (1996)\Tool - Aenima (1996) [FLAC]" F:\Tool - Aenima (1996)\Tool - Aenima (1996) [FLAC]>dir Volume in drive F is Downloads Volume Serial Number is 5134-5FCF Directory of F:\Tool - Aenima (1996)\Tool - Aenima (1996) [FLAC] 08/04/2008 17:13 <DIR> . 08/04/2008 17:13 <DIR> .. 05/10/2007 22:46 36,260,942 01 - Stinkfist.flac 05/10/2007 22:46 57,515,361 02 - Eulogy.flac 05/10/2007 22:46 38,124,779 03 - H..flac 05/10/2007 22:27 3,528,195 04 - Useful Idiot.flac 05/10/2007 22:42 41,049,553 05 - Forty Six & 2.flac 05/10/2007 22:46 6,658,516 06 - Message To Harry Manback.flac 05/10/2007 22:45 31,950,894 07 - Hooker With A Penis.flac 05/10/2007 22:41 2,729,386 08 - Intermission.flac 05/10/2007 22:45 36,982,729 09 - Jimmy.flac 05/10/2007 22:46 13,550,154 10 - Die Eier Von Satan.flac 05/10/2007 22:46 67,341,105 11 - Pushit.flac 05/10/2007 22:46 8,013,910 12 - Cesaro Summability.flac 05/10/2007 22:45 45,926,937 13 - Aenima.flac 05/10/2007 22:45 19,648,617 14 - (-) Ions.flac 05/10/2007 22:46 90,238,883 15 - Third Eye.flac 05/10/2007 21:20 2,110 Aenima.CUE 29/02/2008 10:19 <DIR> artwork 05/10/2007 21:20 <DIR> extras 05/10/2007 21:20 5,376 Thumbnail.JPG 17 File(s) 499,527,447 bytes 4 Dir(s) 1,384,296,448 bytes free F:\Tool - Aenima (1996)\Tool - Aenima (1996) [FLAC]>^A
  15. JolietJake

    Failed to send cue sheet (Oh no!!)

    Thanks. F:\>cd "\Tool - Aenima (1996)" F:\Tool - Aenima (1996)>dir Volume in drive F is Downloads Volume Serial Number is 5134-5FCF Directory of F:\Tool - Aenima (1996) 05/10/2007 20:14 <DIR> . 05/10/2007 20:14 <DIR> .. 08/04/2008 17:13 <DIR> Tool - Aenima (1996) [FLAC] 0 File(s) 0 bytes 3 Dir(s) 1,384,296,448 bytes free F:\Tool - Aenima (1996)>
×

Important Information

By using this site, you agree to our Terms of Use.