Jump to content

Invalid Field Parameter List , Cue sheet could not be sent


Tonybolony
 Share

Recommended Posts

New here , using img burn latest and getting this error  / Invalid Field Parameter List , Cue sheet could not be sent

 

FILE "Farland-Story-FX-T-En-by-Djlpap-R2.bin" BINARY
  TRACK 01 AUDIO
    INDEX 01 00:00:00
  TRACK 02 MODE1/2352
    PREGAP 00:03:00
    INDEX 01 01:29:23
  TRACK 03 AUDIO
    INDEX 00 65:15:30
    INDEX 01 65:17:30
  TRACK 04 AUDIO
    INDEX 01 66:47:20
  TRACK 05 AUDIO
    INDEX 01 68:18:52
 

Link to comment
Share on other sites

 Share

×
×
  • Create New...

Important Information

By using this site, you agree to our Terms of Use.