Jump to content

ImgBurn Support Forum uses cookies. Read the Privacy Policy for more info. To remove this message, please click the button to the right:    I accept the use of cookies

Photo

WMPCDText doesn't recognise CD-Text data



  • Please log in to reply
2 replies to this topic

#1 Polda18

Polda18

    ISF Newbie

  • Members
  • Pip
  • 18 posts
  • Location:Czech Republic

Posted 03 May 2018 - 05:14 PM

Hi. I created a virtual Audio CD using single WAVE file and a CUE Sheet with CD and tracks informations (only titles and performers; should be CD-Text compatible), and though it shows correct informations in ImgBurn image information accessed through image to disc burn window, Windows Media Player plugin doesn't seem to be able to read those data. If I try to access CD-Text data manually through context menu item, an error reading CD-Text informations shows up.

 

This is the CUE sheet I made:

TITLE "The Last of the Mohicans"
PERFORMER "Trevor Jones & Randy Edelman"
REM "Released in 1992"
FILE MOHICANS.WAV WAVE
  TRACK 01 AUDIO
    INDEX 01 00:00:00
    TITLE "Main Title"
    PERFORMER "Trevor Jones"
  TRACK 02 AUDIO
    INDEX 00 01:42:56
    INDEX 01 01:44:44
    TITLE "Elk Hunt"
    PERFORMER "Trevor Jones"
  TRACK 03 AUDIO
    INDEX 00 03:31:29
    INDEX 01 03:33:42
    TITLE "The Kiss"
    PERFORMER "Trevor Jones"
  TRACK 04 AUDIO
    INDEX 00 06:20:03
    INDEX 01 06:22:24
    TITLE "The Glade Part II"
    PERFORMER "Trevor Jones"
  TRACK 05 AUDIO
    INDEX 00 08:55:57
    INDEX 01 08:57:08
    TITLE "Fort Battle"
    PERFORMER "Trevor Jones"
  TRACK 06 AUDIO
    INDEX 00 13:16:30
    INDEX 01 13:18:60
    TITLE "Promentory"
    PERFORMER "Trevor Jones"
  TRACK 07 AUDIO
    INDEX 00 19:29:68
    INDEX 01 19:32:10
    TITLE "Munro's Office/Stockade"
    PERFORMER "Trevor Jones"
  TRACK 08 AUDIO
    INDEX 00 22:00:56
    INDEX 01 22:03:39
    TITLE "Massacre/Canoes"
    PERFORMER "Trevor Jones"
  TRACK 09 AUDIO
    INDEX 00 28:54:42
    INDEX 01 28:56:47
    TITLE "Top of the World"
    PERFORMER "Trevor Jones"
  TRACK 10 AUDIO
    INDEX 00 31:39:17
    INDEX 01 31:42:21
    TITLE "The Courier"
    PERFORMER "Randy Edelman"
  TRACK 11 AUDIO
    INDEX 00 34:09:03
    INDEX 01 34:11:74
    TITLE "Cora"
    PERFORMER "Randy Edelman"
  TRACK 12 AUDIO
    INDEX 00 36:41:58
    INDEX 01 36:45:19
    TITLE "River Walk and Discovery"
    PERFORMER "Randy Edelman"
  TRACK 13 AUDIO
    INDEX 00 42:14:48
    INDEX 01 42:17:02
    TITLE "Parlay"
    PERFORMER "Randy Edelman"
  TRACK 14 AUDIO
    INDEX 00 46:03:12
    INDEX 01 46:06:35
    TITLE "The British Arrival"
    PERFORMER "Randy Edelman"
  TRACK 15 AUDIO
    INDEX 00 48:06:04
    INDEX 01 48:09:38
    TITLE "Pieces of a Story"
    PERFORMER "Randy Edelman"
  TRACK 16 AUDIO
    INDEX 00 53:06:74
    INDEX 01 53:09:46
    TITLE "I Will Find You"
    PERFORMER "Clannad"

The corresponding MOHICANS.WAV file exists and plays just fine. I mounted the MOHICANS.CUE file as a virtual Audio CD file via Daemon Tools Lite. May it be the Daemon Tools do not support CD-Text? ImgBurn can read those data just fine, but mounted CD image appears not contain CD-Data at all, or those data appear to be corrupted.


Edited by Polda18, 05 May 2018 - 09:16 AM.

Random B)


#2 Polda18

Polda18

    ISF Newbie

  • Members
  • Pip
  • 18 posts
  • Location:Czech Republic

Posted 05 May 2018 - 09:20 AM

So by loading the mounted virtual image in VLC Media Player I've discovered that it's fault of WMPCDText, not Daemon Tools, because CD-Text data were correctly loaded by VLC Player. Looks like WMPCDText has issues on Windows 10. Is a source code available somewhere? If not, I'll simply use VLC Player to play Audio CDs, eighter bought or burnt myself.


Random B)


#3 dbminter

dbminter

    ISF God

  • Beta Team Members
  • PipPipPipPipPip
  • 5,917 posts
  • Gender:Male

Posted 05 May 2018 - 03:27 PM

Yeah, I discovered some years ago that that plugin was somewhat problematic.  And that was back on like Windows 7.  Maybe 8.  I eventually removed it/stopped installing it.






0 user(s) are reading this topic

0 members, 0 guests, 0 anonymous users