Jump to content
dgpretzel

Encountering "Failed to send cue sheet... Invalid field in parameter list" when trying to burn CD.

Recommended Posts

Might anyone offer any assistance?  How can I tell what field the error message is referencing?

Below is the cue file (which I built with ImgBurn).

Thank you for your thoughts and suggestions.

DG

 

FILE "Intro to I.wav" WAVE
REM FILE-DECODED-SIZE 05:20:35
  TRACK 01 AUDIO
    TITLE "Intro to I"
    INDEX 01 00:00:00
FILE "I Gandalf.wav" WAVE
REM FILE-DECODED-SIZE 06:09:57
  TRACK 02 AUDIO
    TITLE "I Gandalf"
    INDEX 01 00:00:00
FILE "Intro to II.wav" WAVE
REM FILE-DECODED-SIZE 03:11:48
  TRACK 03 AUDIO
    TITLE "Intro to II"
    INDEX 01 00:00:00
FILE "II Lothlorien.wav" WAVE
REM FILE-DECODED-SIZE 07:04:71
  TRACK 04 AUDIO
    TITLE "II Lothlorien"
    INDEX 01 00:00:00
FILE "Intro to III.wav" WAVE
REM FILE-DECODED-SIZE 00:02:00
  TRACK 05 AUDIO
    TITLE "Intro to III"
    INDEX 01 00:00:00
FILE "III Gollum.wav" WAVE
REM FILE-DECODED-SIZE 09:13:21
  TRACK 06 AUDIO
    TITLE "III Gollum"
    INDEX 01 00:00:00
FILE "Intro to IV.wav" WAVE
REM FILE-DECODED-SIZE 06:35:40
  TRACK 07 AUDIO
    TITLE "Intro to IV"
    INDEX 01 00:00:00
FILE "IV Journey in the Dark.wav" WAVE
REM FILE-DECODED-SIZE 07:56:05
  TRACK 08 AUDIO
    TITLE "IV Journey in the Dark"
    INDEX 01 00:00:00
FILE "Intro to V.wav" WAVE
REM FILE-DECODED-SIZE 02:49:74
  TRACK 09 AUDIO
    TITLE "Intro to V"
    INDEX 01 00:00:00
FILE "V Hobbits.wav" WAVE
REM FILE-DECODED-SIZE 09:39:73
  TRACK 10 AUDIO
    TITLE "V Hobbits"

Share this post


Link to post
Share on other sites

My apologies.

Please disregard.

I messed up my labels, and inadvertently had a 2 second track ("Intro to III").  When I fixed that, the cue file worked.

 

DG

Share this post


Link to post
Share on other sites

×

Important Information

By using this site, you agree to our Terms of Use.