Jump to content

Check existence of cdt file


Recommended Posts

Hi !

After several try, Imgburn do it indeed, except in particular case (or perhaps I do something wrong…)

 

Here my cue file :

CDTEXTFILE "MASATO NAKAMURA from DREAMS COME TRUE - SONIC THE HEDGEHOG 1&2 SOUND TRACK.cdt"
TITLE "SONIC THE HEDGEHOG 1&2 SOUNDTRACK"
PERFORMER "MASATO NAKAMURA from DREAMS COME TRUE"
CATALOG 0600406132610
FILE "Sonic The Hedgehog 1&2 Soundtrack (Disc 1) (Track 01).flac" WAVE
 TRACK 01 AUDIO
   TITLE "STH Green Hill Zone- Mega Drive Version"
   PERFORMER "MASATO NAKAMURA"
   ISRC JPPO01151198
   INDEX 00 00:00:00
   INDEX 01 00:00:15
FILE "Sonic The Hedgehog 1&2 Soundtrack (Disc 1) (Track 02).flac" WAVE
 TRACK 02 AUDIO
   TITLE "STH Marble Zone- Mega Drive Version"
   PERFORMER "MASATO NAKAMURA"
   ISRC JPPO01151199
   INDEX 00 00:00:00
   INDEX 01 00:02:19
FILE "Sonic The Hedgehog 1&2 Soundtrack (Disc 1) (Track 03).flac" WAVE
 TRACK 03 AUDIO
   TITLE "STH Spring Yard Zone- Mega Drive Version"
   PERFORMER "MASATO NAKAMURA"
   ISRC JPPO01151200
   INDEX 00 00:00:00
   INDEX 01 00:01:65
FILE "Sonic The Hedgehog 1&2 Soundtrack (Disc 1) (Track 04).flac" WAVE
 TRACK 04 AUDIO
   TITLE "STH Labyrinth Zone- Mega Drive Version"
   PERFORMER "MASATO NAKAMURA"
   ISRC JPPO01151201
   INDEX 00 00:00:00
   INDEX 01 00:01:51
FILE "Sonic The Hedgehog 1&2 Soundtrack (Disc 1) (Track 05).flac" WAVE
 TRACK 05 AUDIO
   TITLE "STH Star Light Zone- Mega Drive Version"
   PERFORMER "MASATO NAKAMURA"
   ISRC JPPO01151202
   INDEX 00 00:00:00
   INDEX 01 00:01:50
FILE "Sonic The Hedgehog 1&2 Soundtrack (Disc 1) (Track 06).flac" WAVE
 TRACK 06 AUDIO
   TITLE "STH Scrap Brain Zone- Mega Drive Version"
   PERFORMER "MASATO NAKAMURA"
   ISRC JPPO01151203
   INDEX 00 00:00:00
   INDEX 01 00:01:65
FILE "Sonic The Hedgehog 1&2 Soundtrack (Disc 1) (Track 07).flac" WAVE
 TRACK 07 AUDIO
   TITLE "STH Final Zone- Mega Drive Version"
   PERFORMER "MASATO NAKAMURA"
   ISRC JPPO01151204
   INDEX 00 00:00:00
   INDEX 01 00:02:00
FILE "Sonic The Hedgehog 1&2 Soundtrack (Disc 1) (Track 08).flac" WAVE
 TRACK 08 AUDIO
   TITLE "STH Special Stage- Mega Drive Version"
   PERFORMER "MASATO NAKAMURA"
   ISRC JPPO01151205
   INDEX 00 00:00:00
   INDEX 01 00:01:58
FILE "Sonic The Hedgehog 1&2 Soundtrack (Disc 1) (Track 09).flac" WAVE
 TRACK 09 AUDIO
   TITLE "STH Power Up - Mega Drive Version"
   PERFORMER "MASATO NAKAMURA"
   ISRC JPPO01151206
   INDEX 00 00:00:00
   INDEX 01 00:02:19
FILE "Sonic The Hedgehog 1&2 Soundtrack (Disc 1) (Track 10).flac" WAVE
 TRACK 10 AUDIO
   TITLE "STH 1up- Mega Drive Version"
   PERFORMER "MASATO NAKAMURA"
   ISRC JPPO01151207
   INDEX 00 00:00:00
   INDEX 01 00:01:43
FILE "Sonic The Hedgehog 1&2 Soundtrack (Disc 1) (Track 11).flac" WAVE
 TRACK 11 AUDIO
   TITLE "STH Title- Mega Drive Version"
   PERFORMER "MASATO NAKAMURA"
   ISRC JPPO01151208
   INDEX 00 00:00:00
   INDEX 01 00:01:51
FILE "Sonic The Hedgehog 1&2 Soundtrack (Disc 1) (Track 12).flac" WAVE
 TRACK 12 AUDIO
   TITLE "STH All Clear- Mega Drive Version"
   PERFORMER "MASATO NAKAMURA"
   ISRC JPPO01151209
   INDEX 00 00:00:00
   INDEX 01 00:01:71
FILE "Sonic The Hedgehog 1&2 Soundtrack (Disc 1) (Track 13).flac" WAVE
 TRACK 13 AUDIO
   TITLE "STH Stage Clear- Mega Drive Version"
   PERFORMER "MASATO NAKAMURA"
   ISRC JPPO01151210
   INDEX 00 00:00:00
   INDEX 01 00:01:65
FILE "Sonic The Hedgehog 1&2 Soundtrack (Disc 1) (Track 14).flac" WAVE
 TRACK 14 AUDIO
   TITLE "STH Boss- Mega Drive Version"
   PERFORMER "MASATO NAKAMURA"
   ISRC JPPO01151211
   INDEX 00 00:00:00
   INDEX 01 00:02:46
FILE "Sonic The Hedgehog 1&2 Soundtrack (Disc 1) (Track 15).flac" WAVE
 TRACK 15 AUDIO
   TITLE "STH Game Over- Mega Drive Version"
   PERFORMER "MASATO NAKAMURA"
   ISRC JPPO01151212
   INDEX 00 00:00:00
   INDEX 01 00:01:55
FILE "Sonic The Hedgehog 1&2 Soundtrack (Disc 1) (Track 16).flac" WAVE
 TRACK 16 AUDIO
   TITLE "STH Continue- Mega Drive Version"
   PERFORMER "MASATO NAKAMURA"
   ISRC JPPO01151213
   INDEX 00 00:00:00
   INDEX 01 00:02:17
FILE "Sonic The Hedgehog 1&2 Soundtrack (Disc 1) (Track 17).flac" WAVE
 TRACK 17 AUDIO
   TITLE "STH Staff Roll- Mega Drive Version"
   PERFORMER "MASATO NAKAMURA"
   ISRC JPPO01151214
   INDEX 00 00:00:00
   INDEX 01 00:02:20
FILE "Sonic The Hedgehog 1&2 Soundtrack (Disc 1) (Track 18).flac" WAVE
 TRACK 18 AUDIO
   TITLE "STH2 Emerald Hill Zone- Mega Drive Version"
   PERFORMER "MASATO NAKAMURA"
   ISRC JPPO01151215
   INDEX 00 00:00:00
   INDEX 01 00:01:74
FILE "Sonic The Hedgehog 1&2 Soundtrack (Disc 1) (Track 19).flac" WAVE
 TRACK 19 AUDIO
   TITLE "STH2 Chemical Plant Zone- Mega Drive Version"
   PERFORMER "MASATO NAKAMURA"
   ISRC JPPO01151216
   INDEX 00 00:00:00
   INDEX 01 00:02:38
FILE "Sonic The Hedgehog 1&2 Soundtrack (Disc 1) (Track 20).flac" WAVE
 TRACK 20 AUDIO
   TITLE "STH2 Aquatic Ruin Zone- Mega Drive Version"
   PERFORMER "MASATO NAKAMURA"
   ISRC JPPO01151217
   INDEX 00 00:00:00
   INDEX 01 00:02:14
FILE "Sonic The Hedgehog 1&2 Soundtrack (Disc 1) (Track 21).flac" WAVE
 TRACK 21 AUDIO
   TITLE "STH2 Casino Night Zone- Mega Drive Version"
   PERFORMER "MASATO NAKAMURA"
   ISRC JPPO01151218
   INDEX 00 00:00:00
   INDEX 01 00:02:01
FILE "Sonic The Hedgehog 1&2 Soundtrack (Disc 1) (Track 22).flac" WAVE
 TRACK 22 AUDIO
   TITLE "STH2 Hill Top Zone- Mega Drive Version"
   PERFORMER "MASATO NAKAMURA"
   ISRC JPPO01151219
   INDEX 00 00:00:00
   INDEX 01 00:02:01
FILE "Sonic The Hedgehog 1&2 Soundtrack (Disc 1) (Track 23).flac" WAVE
 TRACK 23 AUDIO
   TITLE "STH2 Mystic Cave Zone- Mega Drive Version"
   PERFORMER "MASATO NAKAMURA"
   ISRC JPPO01151220
   INDEX 00 00:00:00
   INDEX 01 00:01:58
FILE "Sonic The Hedgehog 1&2 Soundtrack (Disc 1) (Track 24).flac" WAVE
 TRACK 24 AUDIO
   TITLE "STH2 Oil Ocean Zone- Mega Drive Version"
   PERFORMER "MASATO NAKAMURA"
   ISRC JPPO01151221
   INDEX 00 00:00:00
   INDEX 01 00:01:28
FILE "Sonic The Hedgehog 1&2 Soundtrack (Disc 1) (Track 25).flac" WAVE
 TRACK 25 AUDIO
   TITLE "STH2 Metropolis Zone- Mega Drive Version"
   PERFORMER "MASATO NAKAMURA"
   ISRC JPPO01151222
   INDEX 00 00:00:00
   INDEX 01 00:02:09
FILE "Sonic The Hedgehog 1&2 Soundtrack (Disc 1) (Track 26).flac" WAVE
 TRACK 26 AUDIO
   TITLE "STH2 Mystic Cave Zone (2P)- Mega Drive Version"
   PERFORMER "MASATO NAKAMURA"
   ISRC JPPO01151223
   INDEX 00 00:00:00
   INDEX 01 00:00:64
FILE "Sonic The Hedgehog 1&2 Soundtrack (Disc 1) (Track 27).flac" WAVE
 TRACK 27 AUDIO
   TITLE "STH2 Casino Night Zone (2P) - Mega Drive Version"
   PERFORMER "MASATO NAKAMURA"
   ISRC JPPO01151224
   INDEX 00 00:00:00
   INDEX 01 00:01:57
FILE "Sonic The Hedgehog 1&2 Soundtrack (Disc 1) (Track 28).flac" WAVE
 TRACK 28 AUDIO
   TITLE "STH2 Death Egg Zone (Part 1) - Mega Drive Version"
   PERFORMER "MASATO NAKAMURA"
   ISRC JPPO01151225
   INDEX 00 00:00:00
   INDEX 01 00:02:02
FILE "Sonic The Hedgehog 1&2 Soundtrack (Disc 1) (Track 29).flac" WAVE
 TRACK 29 AUDIO
   TITLE "STH2 Death Egg Zone (Part 2) - Mega Drive Version"
   PERFORMER "MASATO NAKAMURA"
   ISRC JPPO01151226
   INDEX 00 00:00:00
   INDEX 01 00:01:23
FILE "Sonic The Hedgehog 1&2 Soundtrack (Disc 1) (Track 30).flac" WAVE
 TRACK 30 AUDIO
   TITLE "STH2 Emerald Hill Zone (2P) - Mega Drive Version"
   PERFORMER "MASATO NAKAMURA"
   ISRC JPPO01151227
   INDEX 00 00:00:00
   INDEX 01 00:01:72
FILE "Sonic The Hedgehog 1&2 Soundtrack (Disc 1) (Track 31).flac" WAVE
 TRACK 31 AUDIO
   TITLE "STH2 Sky Chase Zone - Mega Drive Version"
   PERFORMER "MASATO NAKAMURA"
   ISRC JPPO01151228
   INDEX 00 00:00:00
   INDEX 01 00:01:29
FILE "Sonic The Hedgehog 1&2 Soundtrack (Disc 1) (Track 32).flac" WAVE
 TRACK 32 AUDIO
   TITLE "STH2 Wing Fortress Zone - Mega Drive Version"
   PERFORMER "MASATO NAKAMURA"
   ISRC JPPO01151229
   INDEX 00 00:00:00
   INDEX 01 00:01:65
FILE "Sonic The Hedgehog 1&2 Soundtrack (Disc 1) (Track 33).flac" WAVE
 TRACK 33 AUDIO
   TITLE "STH2 Special Stage - Mega Drive Version"
   PERFORMER "MASATO NAKAMURA"
   ISRC JPPO01151230
   INDEX 00 00:00:00
   INDEX 01 00:01:43
FILE "Sonic The Hedgehog 1&2 Soundtrack (Disc 1) (Track 34).flac" WAVE
 TRACK 34 AUDIO
   TITLE "STH2 Power Up - Mega Drive Version"
   PERFORMER "MASATO NAKAMURA"
   ISRC JPPO01151231
   INDEX 00 00:00:00
   INDEX 01 00:01:02
FILE "Sonic The Hedgehog 1&2 Soundtrack (Disc 1) (Track 35).flac" WAVE
 TRACK 35 AUDIO
   TITLE "STH2 Title - Mega Drive Version"
   PERFORMER "MASATO NAKAMURA"
   ISRC JPPO01151232
   INDEX 00 00:00:00
   INDEX 01 00:01:64
FILE "Sonic The Hedgehog 1&2 Soundtrack (Disc 1) (Track 36).flac" WAVE
 TRACK 36 AUDIO
   TITLE "STH2 All Clear - Mega Drive Version"
   PERFORMER "MASATO NAKAMURA"
   ISRC JPPO01151233
   INDEX 00 00:00:00
   INDEX 01 00:02:50
FILE "Sonic The Hedgehog 1&2 Soundtrack (Disc 1) (Track 37).flac" WAVE
 TRACK 37 AUDIO
   TITLE "STH2 Boss - Mega Drive Version"
   PERFORMER "MASATO NAKAMURA"
   ISRC JPPO01151234
   INDEX 00 00:00:00
   INDEX 01 00:02:14
FILE "Sonic The Hedgehog 1&2 Soundtrack (Disc 1) (Track 38).flac" WAVE
 TRACK 38 AUDIO
   TITLE "STH2 Super Sonic - Mega Drive Version"
   PERFORMER "MASATO NAKAMURA"
   ISRC JPPO01151235
   INDEX 00 00:00:00
   INDEX 01 00:01:63
FILE "Sonic The Hedgehog 1&2 Soundtrack (Disc 1) (Track 39).flac" WAVE
 TRACK 39 AUDIO
   TITLE "STH2 Option - Mega Drive Version"
   PERFORMER "MASATO NAKAMURA"
   ISRC JPPO01151236
   INDEX 00 00:00:00
   INDEX 01 00:01:47
FILE "Sonic The Hedgehog 1&2 Soundtrack (Disc 1) (Track 40).flac" WAVE
 TRACK 40 AUDIO
   TITLE "STH2 Staff Roll - Mega Drive Version"
   PERFORMER "MASATO NAKAMURA"
   ISRC JPPO01151237
   INDEX 00 00:00:00
   INDEX 01 00:02:36
FILE "Sonic The Hedgehog 1&2 Soundtrack (Disc 1) (Track 41).flac" WAVE
 TRACK 41 AUDIO
   TITLE "STH2 Game Results - Mega Drive Version"
   PERFORMER "MASATO NAKAMURA"
   ISRC JPPO01151238
   INDEX 00 00:00:00
   INDEX 01 00:01:61
FILE "Sonic The Hedgehog 1&2 Soundtrack (Disc 1) (Track 42).flac" WAVE
 TRACK 42 AUDIO
   TITLE "STH2 Unused Song - Mega Drive Version"
   PERFORMER "MASATO NAKAMURA"
   ISRC JPPO01151239
   INDEX 00 00:00:00
   INDEX 01 00:02:19

 

But the file "MASATO NAKAMURA from DREAMS COME TRUE - SONIC THE HEDGEHOG 1&2 SOUND TRACK.cdt" don't exist, it was renamed with : "Sonic The Hedgehog 1&2 Soundtrack (Disc 1).cdt" … and in this case, Imgburn don't screen me that the file doesn't exist…

 

I try with delete the cdt file (not with this particular name, with an other cdt cue file) Imgburn warn me like it does.

Link to comment
Share on other sites

It doesn't just rely on what's written in the CUE file, it also uses its head a little bit based on the CUE file name etc.

 

If it doesn't tell you it's missing, it found it.

 

Click the 'View Image Information' button and you should see the CD-TEXT related info (of course that title/performer info would need to be missing from the CUE to tell for sure).

Link to comment
Share on other sites

Okay, so if a cdt is declared into cue file, it check for its existence, but if it can't find it, it search cdt based on files name.

Sorry to have disturb you for this non-problem.

Is this case (cdt declared in cue file doesn't match with founded one) is reported into log (or somewhere else) ?

This "look ahead feature" hide me a file name problem into my cue file

Link to comment
Share on other sites

Correct, it'll attempt to use the CDT file as specified in the CUE file.

 

If it can't find it, it tries a few other methods such as using the same name as the CUE file (but with '.CDT' file extension).

 

No, it's not reported anywhere that a (successful) substitution has been made.

Link to comment
Share on other sites

 Share

×
×
  • Create New...

Important Information

By using this site, you agree to our Terms of Use.